Welcome Guest ( Log In | Register )

> Mylingar - Döda Drömmar (2018), Death/Black Metal
post Jun 7 2018, 12:08:57
Post #1

Правь статус, ####!616
**************
Group: Металариец
Posts: 5,163
Releases: 3705
From: 55°35’N 38°08’E
On Forums: 12 years 5 days
Thanks: 69330 time(s)
Unknown


(IMG:http://metalarea.org/images/audiocovers/2018_Jun/acov_tid306848_thumb.jpg)

*Artist: Mylingar
*Album: Döda Drömmar
*Year: 2018
*Genre: Death/Black Metal
*Country: Sweden (IMG:http://metalarea.org/forum/style_images/flags/Sweden.png)
*Format: mp3@CBR320kbps
*Size: 93MB

Tracklist:
1.Skammen 04:41
2.Ritualen 05:33
3.Början 06:21
4.Löftet 05:01
5.Besvikelsen 04:48
6.Drömmen 05:54
7.Spektaklet 06:49
******************************
Total playing time: 39:07


(IMG:http://metalarea.org/images/youtube.png)



Technical info
(IMG:http://metalarea.org/images/spectrogram/2018_Jun/3aa100ec7c1cb5ad7d92fa40d7ef382f.png)
Input File: 01 Skammen.mp3
Channels : 2
Sample Rate : 44100
Precision : 16-bit
Duration : 00:04:41.73 = 12424469 samples = 21130 CDDA sectors
File Size : 11.4M
Bit Rate : 325k
Sample Encoding: MPEG audio (layer I, II or III)
Comments :
Title=Skammen
Artist=Mylingar
Album=Döda Drömmar
Tracknumber=1
Year=2018
Genre=Death/Black Metal



Register


Go to the top of the page
  Insert nick Quick quote
+Quote Post
 
Start new topic
Replies (1 - 5)
post Jun 7 2018, 12:38:19
Post #2

Четыре Литра
****
Group: Металариец
Posts: 354
Releases: 0
On Forums: 2 years 8 months
Thanks: 166 time(s)
Unknown


Вот это подарок!
smysl (IMG:style_emoticons/default/9.gif)
Go to the top of the page
  Insert nick Quick quote
+Quote Post
post Jun 7 2018, 14:40:52
Post #3

De Mysteriis Dom Sathanas
**************
Group: Металариец
Posts: 3,994
Releases: 63
From: Doom
On Forums: 11 years 11 months
Thanks: 3396 time(s)
Russian Federation


Тяжеленько так, давненько из Швеции не было таких групп..послушаем'с
Дьявольски/мрачнейший с долей психоза,плюс низко настроенные гитары и отличный вокал, мне напомнило ранние Incantation/Immolation и Mortician...короче где-то рядом

This post has been edited by RUSP73: Jun 9 2018, 19:58:32


Thanks:
(1) Storky,
Go to the top of the page
  Insert nick Quick quote
+Quote Post
post Jun 7 2018, 15:21:52
Post #4

Каратель
*****
Group: Металариец
Posts: 418
Releases: 0
From: Przemysl
On Forums: 5 years 6 months
Thanks: 311 time(s)
Poland


Сплошной неразборчивый шум (IMG:style_emoticons/default/16.gif)


Go to the top of the page
  Insert nick Quick quote
+Quote Post
post Jun 7 2018, 16:53:29
Post #5

MISANTHROPHILIAC 666
*******
Group: Металариец
Posts: 730
Releases: 1
From: Екатеринбург
On Forums: 12 years 1 month
Thanks: 442 time(s)
Russian Federation


Пожалуй соглашусь с Visitor, но = говняная погода в Ёбурге способствует к прослушиванию данной категории муззла 666
Go to the top of the page
  Insert nick Quick quote
+Quote Post
post Jun 7 2018, 19:30:51
Post #6

Мегаманьяк
***********
Group: Металариец
Posts: 1,746
Releases: 0
On Forums: 11 years 4 months
Thanks: 699 time(s)
Antarctica


Не вставляет.
Go to the top of the page
  Insert nick Quick quote
+Quote Post

Reply to this topicStart new topic
2 User(s) are reading this topic (2 Guests and 0 Anonymous Users)
0 Members:

 



- Lo-Fi Version Support form
Copyrights and abuse reports form
Time is now: 13th July 2020 - 12:14:27