Welcome Guest ( Log In | Register )

> Acârash - In Chaos Becrowned (2018), Occult Blackened Heavy Metal/Hard Rock
post Jun 7 2018, 14:55:19
Post #1

Правь статус, ####!111
**************
Group: Металариец
Posts: 21,307
Releases: 14579
From: Г.Харьков
On Forums: 7 years 10 months
Thanks: 260512 time(s)
Unknown


(IMG:https://metalarea.org/images/audiocovers/2018_Jun/acov_tid306852_thumb.jpg)

*Artist: Acârash
*Album: In Chaos Becrowned
*Year: 2018
*Genre: Occult Blackened Heavy Metal/Hard Rock
*Country: Norway (IMG:https://metalarea.org/forum/style_images/flags/Norway.png)
*Format: mp3@CBR320kbps
*Size: 94MB

Tracklist:
1. Cadaver Dei 05:06
2. Shadows Roam 04:59
3. Gathering of Crows 04:34
4. In Chaos Becrowned 04:31
5. Ashes of the Mortal Mind 05:32
6. Legio Obscura 04:23
7. Sacrifice the Winter Wolf 05:46
8. Cenotaph in Flesh 05:47
******************************
Total playing time: 40:38




Extended info
Sølve Sæther (Drums)
Lukas Paulsen (Guitar)
Anlov P. Mathiesen (Bass, vocals)
Anders Gjelsvik (Guitar)


Technical info
(IMG:https://metalarea.org/images/spectrogram/2018_Jun/e0e2022de988575fb2db9d4e7cd53c9a.png)
Input File: 02 Shadows Roam.mp3
Channels : 2
Sample Rate : 44100
Precision : 16-bit
Duration : 00:04:59.94 = 13227310 samples = 22495.4 CDDA sectors
File Size : 12.2M
Bit Rate : 324k
Sample Encoding: MPEG audio (layer I, II or III)
Comments :
Title=Shadows Roam
Artist=AcГўrash
Album=In Chaos Becrowned
Tracknumber=02/08
Year=2018
Genre=Metal
Discnumber=1/1



Register

Register


This post has been edited by Borderline1991: Aug 28 2018, 07:08:07


Go to the top of the page
  Insert nick Quick quote
+Quote Post
 
Start new topic
Replies (1 - 6)
post Jun 7 2018, 15:46:36
Post #2

Правь статус, ####!111
**************
Group: Металариец
Posts: 21,307
Releases: 14579
From: Г.Харьков
On Forums: 7 years 10 months
Thanks: 260512 time(s)
Unknown


Register


Thanks:
Go to the top of the page
  Insert nick Quick quote
+Quote Post
post Jun 7 2018, 16:25:37
Post #3

Правь статус, ####!111
**************
Group: Металариец
Posts: 4,719
Releases: 0
From: Одесса
On Forums: 12 years 1 month
Thanks: 3280 time(s)
Ukraine


Beard Metal


Go to the top of the page
  Insert nick Quick quote
+Quote Post
post Jun 7 2018, 19:11:36
Post #4

Leegte
***********
Group: Металариец
Posts: 1,610
Releases: 14
From: Kiovia
On Forums: 7 years 11 months
Thanks: 2312 time(s)
Ukraine


QUOTE(babanguida @ Jun 7 2018, 18:25:37) *
Beard Metal


Только на 2/3:(IMG:https://f4.bcbits.com/img/0013119781_10.jpg)

Интересное музло. Хотя суховато как-то.
Go to the top of the page
  Insert nick Quick quote
+Quote Post
post Jun 10 2018, 09:23:17
Post #5

Правь статус, ####!111
**************
Group: Металариец
Posts: 2,916
Releases: 8
From: Dnipro
On Forums: 11 years 8 months
Thanks: 926 time(s)
Ukraine


На KHOLD похоже)))
Go to the top of the page
  Insert nick Quick quote
+Quote Post
post Jul 4 2019, 19:48:00
Post #6

железный нечеловек
**********
Group: Металариец
Posts: 1,259
Releases: 3
From: Уфа
On Forums: 10 years 11 months
Thanks: 439 time(s)
Russian Federation


Альбом для всех тех, кому понравился поздний Сатирикон, а именно медленные трэки 2010-х.

P.S. Два участника группы играют в Lonely Kamel


Thanks:
(1) judaz,
Go to the top of the page
  Insert nick Quick quote
+Quote Post
post Jul 4 2019, 20:17:32
Post #7

кручу наждак
**************
Group: Металариец
Posts: 4,332
Releases: 102
From: Самара
On Forums: 9 years 10 months
Thanks: 3438 time(s)
Russian Federation


ЦИТАТА(cancer1974 @ Jul 4 2019, 19:48:00) *
Альбом для всех тех, кому понравился поздний Сатирикон, а именно медленные трэки 2010-х.

P.S. Два участника группы играют в Lonely Kamel

Что-то общее есть, но Сатирикон на порядок интересней.
Go to the top of the page
  Insert nick Quick quote
+Quote Post

Reply to this topicStart new topic
2 User(s) are reading this topic (2 Guests and 0 Anonymous Users)
0 Members:

 



- Lo-Fi Version Support form
Copyrights and abuse reports form
Time is now: 8th April 2020 - 17:39:18