Welcome Guest ( Log In | Register )

> И неформату есть предел.

Рэп/хип-хоп/шансон/поп удаляются. Для них есть свои порталы.

 
Reply to this topicStart new topic
> Nubiferous - IKVABE (2017), Ritual Ambient
post Jun 8 2018, 05:34:54
Post #1

Group: Подсевший
Posts: 39
Releases: 9
From: Краснодар
On Forums: 7 years 8 months
Thanks: 258 time(s)
Russian Federation


(IMG:http://metalarea.org/images/audiocovers/2018_Jun/acov_tid306887_thumb.jpg)

*Artist: Nubiferous
*Album: IKVABE
*Year: 2017
*Genre: Ritual Ambient
*Country: Russian Federation (IMG:http://metalarea.org/forum/style_images/flags/Russian%20Federation.png)
*Format: mp3@CBR320kbps
*Size: 132MB

Tracklist:
1.Ikvabe 13:53
2.Kryoghnar 09:59
3.Veneficia Et Cantiones 04:35
4.Alraun 10:41
5.Bones Of Cernunnos 12:22
6.Exu Rei Omulu 05:25
******************************
Total playing time: 56:55



Technical info
(IMG:http://metalarea.org/images/spectrogram/2018_Jun/e8a1d85f0a51f1b4dfe614607d96e38b.png)
Input File: 03] Nubiferous - Veneficia Et Cantiones.wav
Channels : 2
Sample Rate : 44100
Precision : 16-bit
Duration : 00:04:35.55 = 12151560 samples = 20665.9 CDDA sectors
File Size : 48.6M
Bit Rate : 1.41M
Sample Encoding: 16-bit Signed Integer PCM



Register


Go to the top of the page
  Insert nick Quick quote
+Quote Post

Reply to this topicStart new topic
1 User(s) are reading this topic (1 Guests and 0 Anonymous Users)
0 Members:

 



- Lo-Fi Version Support form
Copyrights and abuse reports form
Time is now: 20th August 2018 - 04:23:35