Welcome Guest ( Log In | Register )

 
Reply to this topicStart new topic
> Backhoe Butchery - Prolonging The Misery (2004), Thrash Metal
post Jun 8 2018, 06:25:26
Post #1

Digital Regency
****
Group: Металариец
Posts: 330
Releases: 135
From: Chisinau
On Forums: 9 years 4 months
Thanks: 1491 time(s)
Romania


(IMG:https://metalarea.org/images/audiocovers/2018_Jun/acov_tid306890_thumb.jpg)

*Artist: Backhoe Butchery
*Album: Prolonging The Misery
*Year: 2004
*Genre: Thrash Metal
*Country: United States (IMG:https://metalarea.org/forum/style_images/flags/United%20States.png)
*Format: mp3@CBR320kbps
*Size: 45MB

Tracklist:
1. All Holes Filled
2. Surrender the Vagina
3. Death by Tire Iron
4. Dead Bat
5. Fuck Anger Management
6. I Saw Your Cross
7. Saturday Night Love Affair
******************************
Total playing time: 21:18

Technical info
(IMG:https://metalarea.org/images/spectrogram/2018_Jun/9eb9cc0c003de6dc8bd7e2ee44e3ae29.png)
Input File: 01. All Holes Filled.mp3
Channels : 2
Sample Rate : 44100
Precision : 16-bit
Duration : 00:01:58.49 = 5225585 samples = 8887.05 CDDA sectors
File Size : 4.76M
Bit Rate : 321k
Sample Encoding: MPEG audio (layer I, II or III)
Comments :
Title=All Holes Filled
Artist=Backhoe Butchery
Album=Prolonging The Misery
Tracknumber=1/7
Year=2004
Genre=Thrash Metal



Register


Go to the top of the page
  Insert nick Quick quote
+Quote Post

Reply to this topicStart new topic
1 User(s) are reading this topic (1 Guests and 0 Anonymous Users)
0 Members:

 



- Lo-Fi Version Support form
Copyrights and abuse reports form
Time is now: 20th August 2018 - 23:55:07