Welcome Guest ( Log In | Register )

> И неформату есть предел.

Рэп/хип-хоп/шансон/поп удаляются. Для них есть свои порталы.

> Sunstorm - The Road To Hell (2018), Melodic Hard Rock/AOR (D5)
post Jun 8 2018, 08:06:34
Post #1

MDM-Thrash Metal
**************
Group: Металариец
Posts: 7,152
Releases: 421
From: Одесса
On Forums: 11 years 2 months
Thanks: 13637 time(s)
Ukraine


(IMG:http://metalarea.org/images/audiocovers/2018_Jun/acov_tid306893_thumb.jpg)

*Artist: Sunstorm
*Album: The Road To Hell
*Year: 2018
*Genre: Melodic Hard Rock/AOR
*Country: United States (IMG:http://metalarea.org/forum/style_images/flags/United%20States.png)
*Format: mp3@CBR320kbps
*Size: 108MB

Tracklist:
01. Only the Good Will Survive 4:14
02. The Road to Hell 4:23
03. On the Edge 3:54
04. Blind the Sky 4:33
05. My Eyes on You 4:26
06. Future to Come 3:34
07. Everywhere 4:24
08. Resurrection 3:57
09. Calling 4:20
10. State of the Heart 3:27
11. Still Fighting 4:16
******************************
Total playing time: 45:28

(IMG:http://metalarea.org/images/youtube.png)
(IMG:http://metalarea.org/images/youtube.png)

Extended info
Отличный, мелодичный и просто добротный альбус, отдающий нафффталином на все 100! Ну и вокал, конечно, выше всяких похвал.


Technical info
(IMG:http://metalarea.org/images/spectrogram/2018_Jun/f7337ff706d73df0be849f8b0b0db8f9.png)
Input File: 01. Only the Good Will Survive.mp3
Channels : 2
Sample Rate : 44100
Precision : 16-bit
Duration : 00:00:00.25 = 11201 samples = 19.0493 CDDA sectors
File Size : 10.5M
Bit Rate : 332M
Sample Encoding: MPEG audio (layer I, II or III)
Comments :
Title=Only the Good Will Survive
Artist=Sunstorm
Album=The Road to Hell
Tracknumber=1/11
Year=2018
Genre=Rock
Discnumber=1/1



Register


Go to the top of the page
  Insert nick Quick quote
+Quote Post
 
Start new topic
Replies (1 - 3)
post Jun 8 2018, 22:39:11
Post #2
BAN
Banned till
Oct 23 2018, 12:27:08



Здесь между прочим Джо Линн Тёрнер голосит - один из самых харизматичных голосов в роке и металле!


Thanks:
(1) smes,
Go to the top of the page
  Insert nick Quick quote
+Quote Post
post Jun 9 2018, 11:55:02
Post #3

Dark Ambient Shoujo
**********
Group: Металариец
Posts: 1,016
Releases: 1
On Forums: 9 years 9 months
Thanks: 506 time(s)
Russian Federation


Ну да, проект известный. Всё на уровне, но предыдущие пластинки похитовее.


Thanks:
(1) smes,
Go to the top of the page
  Insert nick Quick quote
+Quote Post
post Jun 12 2018, 08:44:06
Post #4

Правь статус, ####!111
**************
Group: Металариец
Posts: 3,056
Releases: 1
From: Рейх
On Forums: 12 years 1 month
Thanks: 807 time(s)
Ukraine


ЦИТАТА(Dreamtale @ Jun 9 2018, 15:55:02) *
но предыдущие пластинки похитовее.

Согласен, но альбом не менее крутой получился. Кайфую и пою вместе с Тернером
Go to the top of the page
  Insert nick Quick quote
+Quote Post

Reply to this topicStart new topic
1 User(s) are reading this topic (1 Guests and 0 Anonymous Users)
0 Members:

 



- Lo-Fi Version Support form
Copyrights and abuse reports form
Time is now: 17th October 2018 - 21:02:37