Welcome Guest ( Log In | Register )

> И неформату есть предел.

Рэп/хип-хоп/шансон/поп удаляются. Для них есть свои порталы.

> Belinda Carlisle - Heaven On Earth (1987), Pop/Rock
post Jun 8 2018, 08:45:59
Post #1

MDM-Thrash Metal
**************
Group: Металариец
Posts: 6,951
Releases: 412
From: Одесса
On Forums: 11 years 5 days
Thanks: 13224 time(s)
Ukraine


(IMG:http://metalarea.org/images/audiocovers/2018_Jun/acov_tid306894_thumb.jpg)

*Artist: Belinda Carlisle
*Album: Heaven On Earth
*Year: 1987
*Genre: Pop/Rock
*Country: United States (IMG:http://metalarea.org/forum/style_images/flags/United%20States.png)
*Format: mp3@CBR320kbps
*Size: 128MB

Tracklist:
01. Heaven Is A Place On Earth 4:06
02. Circle In The Sand 4:27
03. I Feel Free 4:50
04. Should I Let You In? 4:19
05. World Without You 4:43
06. I Get Weak 4:53
07. We Can Change 3:47
08. Fool For Love 3:56
09. Nobody Owns Me 3:13
10. Love Never Dies 5:17
11. Heaven Is A Place On Earth (2017) (Bonus Track) 4:02
12. Why (Bonus Track) 4:15
13. Superstar (Bonus Track) 3:57
******************************
Total playing time: 55:45

Extended info
Belinda Carlisle - Heaven On Earth (30Th Anniversary Edition) (2017)


Technical info
(IMG:http://metalarea.org/images/spectrogram/2018_Jun/f3e01ee250d89e5987ca1bb754c88f35.png)
Input File: 01_belinda_carlisle_heaven_is_a_place_on_earth.mp3
Channels : 2
Sample Rate : 44100
Precision : 16-bit
Duration : 00:04:05.81 = 10840309 samples = 18435.9 CDDA sectors
File Size : 9.90M
Bit Rate : 322k
Sample Encoding: MPEG audio (layer I, II or III)
Comments :
Title=Heaven Is a Place on Earth
Artist=Belinda Carlisle
Album=Heaven on Earth (30th Anniversary Edition)
Tracknumber=1/13
Year=2017
Genre=13



Register


Go to the top of the page
  Insert nick Quick quote
+Quote Post
 
Start new topic
Replies (1 - 3)
post Jun 8 2018, 10:36:17
Post #2

MDM-Thrash Metal
**************
Group: Металариец
Posts: 6,951
Releases: 412
From: Одесса
On Forums: 11 years 5 days
Thanks: 13224 time(s)
Ukraine








Хиты на все времена!
Go to the top of the page
  Insert nick Quick quote
+Quote Post
post Jun 13 2018, 09:30:05
Post #3

South Of Heaven /адепт ВУДУ
**************
Group: Металариец
Posts: 12,629
Releases: 7
From: Санкт-Петербург
On Forums: 8 years 4 months
Thanks: 4595 time(s)
Russian Federation


ЦИТАТА(Andrew @ Jun 8 2018, 12:36:17) *
Хиты на все времена!

(IMG:style_emoticons/default/dooo.gif)
Go to the top of the page
  Insert nick Quick quote
+Quote Post
post Jun 13 2018, 10:10:29
Post #4

Правь статус, ####!111
**************
Group: Металариец
Posts: 33,482
Releases: 489
On Forums: 9 years 2 months
Thanks: 25520 time(s)
Russian Federation


Даа, поп 80-х - начала 90-х это было действительно явление. Имеется в виду западный вариант, конечно же, преимущественно американский. Прекрасная мелодичность, запоминаемость, хитовость, харизма и мастерство исполнителей, не то, что современные котяшки и потуги безголосых и нехаризматичных полчищ хрен знает как оказавшихся на сцене говнарей.
Go to the top of the page
  Insert nick Quick quote
+Quote Post

Reply to this topicStart new topic
1 User(s) are reading this topic (1 Guests and 0 Anonymous Users)
0 Members:

 



- Lo-Fi Version Support form
Copyrights and abuse reports form
Time is now: 16th August 2018 - 11:25:31