Welcome Guest ( Log In | Register )

> Lord Vigo - Six Must Die (2018), Epic Doom Metal
post Jun 8 2018, 16:20:23
Post #1

Маньяк
**********
Group: Металариец
Posts: 1,406
Releases: 1194
From: Одесса
On Forums: 10 years 3 months
Thanks: 9296 time(s)
Ukraine


(IMG:http://metalarea.org/images/audiocovers/2018_Jun/acov_tid306910_thumb.jpg)

*Artist: Lord Vigo
*Album: Six Must Die
*Year: 2018
*Genre: Epic Doom Metal
*Country: Germany (IMG:http://metalarea.org/forum/style_images/flags/Germany.png)
*Format: mp3@CBR128kbps (IMG:http://metalarea.org/images/bit_low.gif)
*Size: 43MB

Tracklist:
1. Elizabeth Dane 01:41
2. Doom Shall Rise 04:46
3. I Am the Prophecy 05:42
4. Thu-Rar 05:07
5. Thal Mun-Rar 05:55
6. Evil In Disguise 06:59
7. Six Must Die 13:01
8. 21 April 1880 02:02
******************************
Total playing time: 45:13



Extended info
Line - up:

Vinz Clortho - Drums, Vocals (Roadrash/Skellington, ex-Oblivion)
Volguus Zildrohar - Guitars, Bass (Roadrash/Skellington, The Beautiful Dead)
Tony Scoleri - Guitars, Bass (Hammer King, Ivory Night, ex-Bad Mean Tone, The Beautiful Dead, ex-Ross the Boss, ex-Men of War)

(IMG:https://www.metal-archives.com/images/3/5/4/0/3540395214_photo.jpg?1852)


Technical info
(IMG:http://metalarea.org/images/spectrogram/2018_Jun/9b4f67f6fa0d6485c28f68d874e2c8dd.png)
Input File: 08. 1 April 1880.MP3
Channels : 2
Sample Rate : 44100
Precision : 16-bit
Duration : 00:02:02.96 = 5422536 samples = 9222 CDDA sectors
File Size : 1.97M
Bit Rate : 128k
Sample Encoding: MPEG audio (layer I, II or III)
Comments :
Title=1 April 1880
Artist=Lord Vigo
Album=Six Must Die
Tracknumber=8
Year=2018
Genre=Epic Doom Metal



Register


Go to the top of the page
  Insert nick Quick quote
+Quote Post
 
Start new topic
Replies (1 - 3)
post Jun 9 2018, 04:37:48
Post #2

Наливай!
**************
Group: Металариец
Posts: 5,098
Releases: 27
From: Москва-Бибирево
On Forums: 10 years 6 months
Thanks: 2397 time(s)
Russian Federation




Thanks:
(1) Lux,
Go to the top of the page
  Insert nick Quick quote
+Quote Post
post Jun 9 2018, 13:05:29
Post #3

Правь статус, ####!111
**************
Group: Металариец
Posts: 2,574
Releases: 0
From: Одесса
On Forums: 10 years 6 months
Thanks: 987 time(s)
Ukraine


not bad but not doom metal, or by very far
Go to the top of the page
  Insert nick Quick quote
+Quote Post
post Jun 13 2018, 11:58:18
Post #4

Литр
*
Group: Подсевший
Posts: 81
Releases: 0
On Forums: 9 years 4 months
Thanks: 1 time(s)
Russian Federation


not exactly doom metal but it's brilliant music

and the vocals kills!
Go to the top of the page
  Insert nick Quick quote
+Quote Post

Reply to this topicStart new topic
2 User(s) are reading this topic (2 Guests and 0 Anonymous Users)
0 Members:

 



- Lo-Fi Version Support form
Copyrights and abuse reports form
Time is now: 24th September 2018 - 21:05:15