Welcome Guest ( Log In | Register )

 
Reply to this topicStart new topic
> Wulckdroff - Going, Going [ep] (1996), Thrash/Groove Metal
post Jun 9 2018, 09:02:48
Post #1

Подвал
**************
Group: Металариец
Posts: 12,161
Releases: 6860
From: Far East (Khabarovsk)
On Forums: 9 years 4 months
Thanks: 62615 time(s)
Russian Federation


(IMG:http://metalarea.org/images/audiocovers/2018_Jun/acov_tid306918_thumb.jpg)

*Artist: Wulckdroff
*Album: Going, Going [ep]
*Year: 1996
*Genre: Thrash/Groove Metal
*Country: Serbia (IMG:http://metalarea.org/forum/style_images/flags/Serbia.png)
*Format: mp3@CBR160kbps (IMG:http://metalarea.org/images/bit_low.gif)
*Size: 36MB

Tracklist:
1. The Time 05:11
2. Overabove 05:45
3. The Last Hero Has Gone 05:46
4. Jester In The Mud 06:02
5. Real Life 05:27
6. Fifth For The Bridge 03:40
******************************
Total playing time: 31:51

Technical info
(IMG:http://metalarea.org/images/spectrogram/2018_Jun/bf22bc55448e1cfff79165404a320f39.png)
Input File: 01-The Time.mp3
Channels : 2
Sample Rate : 44100
Precision : 16-bit
Duration : 00:01:10.77 = 3120737 samples = 5307.38 CDDA sectors
File Size : 1.42M
Bit Rate : 160k
Sample Encoding: MPEG audio (layer I, II or III)
Comments :
Title=The Time
Artist=Wulckdroff
Album=Going, Going (EP)
Tracknumber=01
Year=1996
Genre=Thrash Metal



Register


Go to the top of the page
  Insert nick Quick quote
+Quote Post

Reply to this topicStart new topic
2 User(s) are reading this topic (2 Guests and 0 Anonymous Users)
0 Members:

 



- Lo-Fi Version Support form
Copyrights and abuse reports form
Time is now: 21st June 2018 - 09:28:23