Welcome Guest ( Log In | Register )

 
Reply to this topicStart new topic
> Fatal - L'émissaire [ep] (1998), Death Metal (D16)
post Jun 9 2018, 09:20:24
Post #1

Подвал
**************
Group: Металариец
Posts: 12,436
Releases: 6993
From: Far East (Khabarovsk)
On Forums: 9 years 7 months
Thanks: 64560 time(s)
Russian Federation


(IMG:http://metalarea.org/images/audiocovers/2018_Jun/acov_tid306919_thumb.jpg)

*Artist: Fatal
*Album: L'émissaire [ep]
*Year: 1998
*Genre: Death Metal
*Country: France (IMG:http://metalarea.org/forum/style_images/flags/France.png)
*Format: mp3@VBR236kbps
*Size: 23MB

Tracklist:
1. L'émissaire 04:12
2. Qu'est-ce Que Notre Vie? 04:13
3. L'horloge Fatale 05:19
******************************
Total playing time: 13:44


(IMG:http://metalarea.org/images/myspace.png)

Technical info
(IMG:http://metalarea.org/images/spectrogram/2018_Jun/1281ca1d943dd077c662cfeeac025ed3.png)
Input File: 01-Lemissaire.mp3
Channels : 2
Sample Rate : 44100
Precision : 16-bit
Duration : 00:01:10.48 = 3108080 samples = 5285.85 CDDA sectors
File Size : 2.17M
Bit Rate : 247k
Sample Encoding: MPEG audio (layer I, II or III)
Comments :
Title=L'emissaire
Artist=Fatal
Album=L'emissaire
Tracknumber=1
Year=1998
Genre=Metal



Register


Go to the top of the page
  Insert nick Quick quote
+Quote Post

Reply to this topicStart new topic
2 User(s) are reading this topic (2 Guests and 0 Anonymous Users)
0 Members:

 



- Lo-Fi Version Support form
Copyrights and abuse reports form
Time is now: 24th September 2018 - 21:00:10