Welcome Guest ( Log In | Register )

 
Reply to this topicStart new topic
> Deep End - Suck [ep] (1989), Crossover/Heavy Metal/Rock
post Jun 9 2018, 09:40:51
Post #1

Подвал
**************
Group: Металариец
Posts: 12,161
Releases: 6860
From: Far East (Khabarovsk)
On Forums: 9 years 4 months
Thanks: 62608 time(s)
Russian Federation


(IMG:http://metalarea.org/images/audiocovers/2018_Jun/acov_tid306920_thumb.JPG)

*Artist: Deep End
*Album: Suck [ep]
*Year: 1989
*Genre: Crossover/Heavy Metal/Rock
*Country: Canada (IMG:http://metalarea.org/forum/style_images/flags/Canada.png)
*Format: mp3@VBR256kbps
*Size: 33MB

Tracklist:
1. The Last 01:37
2. Your Brothers A Flamer (Without Me) 02:13
3. Crush 02:34
4. This Really Happened 02:28
5. Way Out 01:18
6. Swarmed 03:14
7. Seven Digits 02:59
8. Out To Lunch 01:40
******************************
Total playing time: 18:03

Technical info
(IMG:http://metalarea.org/images/spectrogram/2018_Jun/723fa22f72f1a70ccc8076b6ab309163.png)
Input File: 01-The Last.mp3
Channels : 2
Sample Rate : 44100
Precision : 16-bit
Duration : 00:00:34.87 = 1537899 samples = 2615.47 CDDA sectors
File Size : 1.16M
Bit Rate : 265k
Sample Encoding: MPEG audio (layer I, II or III)
Comments :
Title=The Last
Artist=Deep End
Album=Suck
Tracknumber=1
Year=1989
Genre=Crossover



Register


Go to the top of the page
  Insert nick Quick quote
+Quote Post

Reply to this topicStart new topic
1 User(s) are reading this topic (1 Guests and 0 Anonymous Users)
0 Members:

 



- Lo-Fi Version Support form
Copyrights and abuse reports form
Time is now: 20th June 2018 - 13:57:00