Welcome Guest ( Log In | Register )

 
Reply to this topicStart new topic
> Mortuary - Infected By Pollution [demo] (1991), Death/Thrash Metal
post Jun 9 2018, 09:53:19
Post #1

Подвал
**************
Group: Металариец
Posts: 12,161
Releases: 6860
From: Far East (Khabarovsk)
On Forums: 9 years 4 months
Thanks: 62610 time(s)
Russian Federation


(IMG:http://metalarea.org/images/audiocovers/2018_Jun/acov_tid306921_thumb.jpg)

*Artist: Mortuary
*Album: Infected By Pollution [demo]
*Year: 1991
*Genre: Death/Thrash Metal
*Country: Serbia (IMG:http://metalarea.org/forum/style_images/flags/Serbia.png)
*Format: mp3@CBR320kbps
*Size: 27MB

Tracklist:
1. Psychotic Genocide 02:40
2. Mortuary Of Souls 03:35
3. Infected By Pollution 03:02
4. No Sense... For Romance (Instrumental) 03:54
******************************
Total playing time: 13:11

Extended info
Recorded and mixed at Studio Male Pčelice, Kragujevac, Serbia, January 1991. Produced by Saša Vujić and Mortuary.


Technical info
(IMG:http://metalarea.org/images/spectrogram/2018_Jun/bd4cb5099dc904564d923ada679111a1.png)
Input File: 01-Psychotic Genocide.mp3
Channels : 2
Sample Rate : 44100
Precision : 16-bit
Duration : 00:00:59.30 = 2615174 samples = 4447.57 CDDA sectors
File Size : 2.37M
Bit Rate : 320k
Sample Encoding: MPEG audio (layer I, II or III)
Comments :
Title=Psychotic Genocide
Artist=Mortuary
Album=Infected By Pollution (Demo)
Tracknumber=01
Year=1991
Genre=???



Register


Thanks:
(2) Rosen, Z28517,
Go to the top of the page
  Insert nick Quick quote
+Quote Post

Reply to this topicStart new topic
2 User(s) are reading this topic (2 Guests and 0 Anonymous Users)
0 Members:

 



- Lo-Fi Version Support form
Copyrights and abuse reports form
Time is now: 20th June 2018 - 13:58:26