Welcome Guest ( Log In | Register )

> Zeroed - War Of Liberation (2003), Death Metal
post Jun 9 2018, 10:45:06
Post #1

Подвал
**************
Group: Металариец
Posts: 12,295
Releases: 6934
From: Far East (Khabarovsk)
On Forums: 9 years 6 months
Thanks: 63426 time(s)
Russian Federation


(IMG:http://metalarea.org/images/audiocovers/2018_Jun/acov_tid306922_thumb.jpg)

*Artist: Zeroed
*Album: War Of Liberation
*Year: 2003
*Genre: Death Metal
*Country: Germany (IMG:http://metalarea.org/forum/style_images/flags/Germany.png)
*Format: mp3@CBR192kbps
*Size: 39MB

Tracklist:
1. Invocation / Black Song 04:54
2. Revenge 03:52
3. Zombie Carrots Gone Berzerk 01:06
4. Erde Ruft 06:42
5. Mostly Harmless 01:02
6. War Of Liberation 03:33
7. 7th Plague 03:27
8. Zenized / Hidden Track 04:40
******************************
Total playing time: 29:16

Extended info
Recorded by JZ & Zeroed @ Surtr Studio, Bochum-Dahhausen.
Mixed & mastered by JZ.


Technical info
(IMG:http://metalarea.org/images/spectrogram/2018_Jun/5e488d54ab40036651ab657a37aaf9c9.png)
Input File: 02-Revenge.mp3
Channels : 2
Sample Rate : 44100
Precision : 16-bit
Duration : 00:00:55.91 = 2465631 samples = 4193.25 CDDA sectors
File Size : 1.34M
Bit Rate : 192k
Sample Encoding: MPEG audio (layer I, II or III)
Comments :
Title=Revenge
Artist=Zeroed (Ger)
Album=War of Liberation
Tracknumber=02
Year=2003
Genre=Death Metal



Register


Go to the top of the page
  Insert nick Quick quote
+Quote Post
 
Start new topic
Replies (1 - 2)
post Jun 9 2018, 12:41:20
Post #2

Morbid Angel
**************
Group: Металариец
Posts: 4,151
Releases: 0
From: Литва г.Клайпеда
On Forums: 11 years 5 months
Thanks: 1737 time(s)
Lithuania




Thanks:
Go to the top of the page
  Insert nick Quick quote
+Quote Post
post Jun 10 2018, 08:35:25
Post #3

Социопат.Маргинал. Мизантроп.Нигилист. Перверзный нарциссист.
**************
Group: Металариец
Posts: 5,269
Releases: 667
From: Город-герой Ленинград
On Forums: 7 years 6 months
Thanks: 5959 time(s)
Russian Federation


На яндекс или ргхост залейте,пожалуйста.
Go to the top of the page
  Insert nick Quick quote
+Quote Post

Reply to this topicStart new topic
1 User(s) are reading this topic (1 Guests and 0 Anonymous Users)
0 Members:

 



- Lo-Fi Version Support form
Copyrights and abuse reports form
Time is now: 14th August 2018 - 09:24:04