Welcome Guest ( Log In | Register )

> Infiltrator - I Burned For His Throne [demo] (2018), Black Metal (D4)
post Jun 9 2018, 16:19:09
Post #1

Восемь Литров
********
Group: Металариец
Posts: 857
Releases: 26
From: Mакеевка
On Forums: 11 years 6 months
Thanks: 470 time(s)
Russian Federation


(IMG:http://metalarea.org/images/audiocovers/nocover.gif)

*Artist: Infiltrator
*Album: I Burned For His Throne [demo]
*Year: 2018
*Genre: Black Metal
*Country: Ukraine (IMG:http://metalarea.org/forum/style_images/flags/Ukraine.png)
*Format: mp3@CBR320kbps
*Size: 31MB

Tracklist:
01. I Burned For His Throne 5.02
02. Shadows Death 2.13
03. Eternal Flames Die 4.41
04. Black Legion and Angels 3.49
******************************
Total playing time: 15:45

Technical info
(IMG:http://metalarea.org/images/spectrogram/2018_Jun/e81bbb0d6d1236be26b9fbbd8248cb40.png)
Input File: 01. I Burned For His Throne.mp3
Channels : 2
Sample Rate : 44100
Precision : 16-bit
Duration : 00:05:02.65 = 13347041 samples = 22699 CDDA sectors
File Size : 12.1M
Bit Rate : 320k
Sample Encoding: MPEG audio (layer I, II or III)



Register


Go to the top of the page
  Insert nick Quick quote
+Quote Post
 
Start new topic
Replies (1 - 6)
post Jun 9 2018, 17:51:28
Post #2
BAN
RO till
--



infiltrator ' это Ваш проект ?
Go to the top of the page
  Insert nick Quick quote
+Quote Post
post Jun 9 2018, 20:05:33
Post #3

Самый Тихий Час
**************
Group: Металариец
Posts: 5,553
Releases: 0
On Forums: 8 years 9 months
Thanks: 2395 time(s)
Unknown


infiltrator,
дэт же вроде был ранее
Go to the top of the page
  Insert nick Quick quote
+Quote Post
post Jun 10 2018, 06:40:11
Post #4

Восемь Литров
********
Group: Металариец
Posts: 857
Releases: 26
From: Mакеевка
On Forums: 11 years 6 months
Thanks: 470 time(s)
Russian Federation


ЦИТАТА
дэт же вроде был ранее


были идеи по блеку
Go to the top of the page
  Insert nick Quick quote
+Quote Post
post Jun 20 2018, 05:37:21
Post #5

..ще до загибелі
**********
Group: Металариец
Posts: 1,154
Releases: 0
From: Мати Руських Міст
On Forums: 7 years 5 months
Thanks: 875 time(s)
Ukraine


а чо локация Украина? или грeбaные металархивы цонзурят? (IMG:style_emoticons/default/1488.gif)
Go to the top of the page
  Insert nick Quick quote
+Quote Post
post Jun 24 2018, 15:48:50
Post #6
BAN
RO till
--



А не плохо .И звук гитарный шо нада . Молодец .Малеха Епишка однотипна ,но для начала кла-=С.С.
Go to the top of the page
  Insert nick Quick quote
+Quote Post
post Jun 25 2018, 17:55:00
Post #7

Маньяк
**********
Group: Металариец
Posts: 1,485
Releases: 23
From: Spain
On Forums: 10 years 11 months
Thanks: 1129 time(s)
Spain


QUOTE


Thanks:
Go to the top of the page
  Insert nick Quick quote
+Quote Post

Reply to this topicStart new topic
1 User(s) are reading this topic (1 Guests and 0 Anonymous Users)
0 Members:

 



- Lo-Fi Version Support form
Copyrights and abuse reports form
Time is now: 14th August 2018 - 09:22:49