Welcome Guest ( Log In | Register )

> Infiltrator - I Burned For His Throne [demo] (2018), Black Metal (D4)
post Jun 9 2018, 16:19:09
Post #1

Восемь Литров
********
Group: Металариец
Posts: 856
Releases: 26
From: Mакеевка
On Forums: 11 years 4 months
Thanks: 470 time(s)
Russian Federation


(IMG:http://metalarea.org/images/audiocovers/nocover.gif)

*Artist: Infiltrator
*Album: I Burned For His Throne [demo]
*Year: 2018
*Genre: Black Metal
*Country: Ukraine (IMG:http://metalarea.org/forum/style_images/flags/Ukraine.png)
*Format: mp3@CBR320kbps
*Size: 31MB

Tracklist:
01. I Burned For His Throne 5.02
02. Shadows Death 2.13
03. Eternal Flames Die 4.41
04. Black Legion and Angels 3.49
******************************
Total playing time: 15:45

Technical info
(IMG:http://metalarea.org/images/spectrogram/2018_Jun/e81bbb0d6d1236be26b9fbbd8248cb40.png)
Input File: 01. I Burned For His Throne.mp3
Channels : 2
Sample Rate : 44100
Precision : 16-bit
Duration : 00:05:02.65 = 13347041 samples = 22699 CDDA sectors
File Size : 12.1M
Bit Rate : 320k
Sample Encoding: MPEG audio (layer I, II or III)



Register


Go to the top of the page
  Insert nick Quick quote
+Quote Post
 
Start new topic
Replies (1 - 5)
post Jun 9 2018, 17:51:28
Post #2
BAN
Banned till
Jun 19 2018, 19:30:20



infiltrator ' это Ваш проект ?
Go to the top of the page
  Insert nick Quick quote
+Quote Post
post Jun 9 2018, 17:55:24
Post #3

Правь статус, ####!111
**************
Group: Металариец
Posts: 2,055
Releases: 0
From: Odessa
On Forums: 10 years 3 months
Thanks: 763 time(s)
Ukraine


Finally a good black album. Very good before Marduk's next pop-crap (IMG:style_emoticons/default/true_black.gif)
Go to the top of the page
  Insert nick Quick quote
+Quote Post
post Jun 9 2018, 20:05:33
Post #4

Flowers Of The Underworld
**************
Group: Металариец
Posts: 5,305
Releases: 0
On Forums: 8 years 7 months
Thanks: 2259 time(s)
Unknown


infiltrator,
дэт же вроде был ранее
Go to the top of the page
  Insert nick Quick quote
+Quote Post
post Jun 10 2018, 06:40:11
Post #5

Восемь Литров
********
Group: Металариец
Posts: 856
Releases: 26
From: Mакеевка
On Forums: 11 years 4 months
Thanks: 470 time(s)
Russian Federation


ЦИТАТА
дэт же вроде был ранее


были идеи по блеку
Go to the top of the page
  Insert nick Quick quote
+Quote Post
post Today, 05:37:21
Post #6

..ще до загибелі
**********
Group: Металариец
Posts: 1,134
Releases: 0
From: Мати Руських Міст
On Forums: 7 years 3 months
Thanks: 853 time(s)
Ukraine


а чо локация Украина? или грeбaные металархивы цонзурят? (IMG:style_emoticons/default/1488.gif)
Go to the top of the page
  Insert nick Quick quote
+Quote Post

Reply to this topicStart new topic
2 User(s) are reading this topic (2 Guests and 0 Anonymous Users)
0 Members:

 



- Lo-Fi Version Support form
Copyrights and abuse reports form
Time is now: 20th June 2018 - 13:58:10