Welcome Guest ( Log In | Register )

> И неформату есть предел.

Рэп/хип-хоп/шансон/поп удаляются. Для них есть свои порталы.

> Rome - Hall Of Thatch (2018), Dark Folk (D8)
post Jun 9 2018, 17:49:46
Post #1

𝕻𝕬𝕹𝕬𝕮𝕰𝕬
******
Group: Металариец
Posts: 548
Releases: 307
On Forums: 6 years 2 months
Thanks: 4162 time(s)
Unknown


(IMG:http://metalarea.org/images/audiocovers/2018_Jun/acov_tid306938_thumb.jpg)

*Artist: Rome
*Album: Hall Of Thatch
*Year: 2018
*Genre: Dark Folk
*Country: Luxembourg (IMG:http://metalarea.org/forum/style_images/flags/Luxembourg.png)
*Format: mp3@CBR320kbps
*Size: 91MB

Tracklist:
1. Blighter 04:21
2. Nurser 04:38
3. Hunter 06:11
4. Slaver 05:28
5. Martyr 03:39
6. Hawker 03:49
7. Prayer 05:05
8. Keeper 04:17
9. Clemency 04:38
******************************
Total playing time: 42:06

Technical info
(IMG:http://metalarea.org/images/spectrogram/2018_Jun/52753682fc76ba9d7bdd209783c3686a.png)
Input File: 06 - Hawker.mp3
Channels : 2
Sample Rate : 44100
Precision : 16-bit
Duration : 00:03:49.75 = 10131755 samples = 17230.9 CDDA sectors
File Size : 9.33M
Bit Rate : 325k
Sample Encoding: MPEG audio (layer I, II or III)
Comments :
Title=Hawker
Artist=Rome
Album=Hall Of Thatch
Tracknumber=06
Year=2018
Genre=Dark Folk



Register


Go to the top of the page
  Insert nick Quick quote
+Quote Post
 
Start new topic
Replies (1 - 1)
post Jun 9 2018, 22:43:48
Post #2

Шесть Литров
******
Group: Металариец
Posts: 632
Releases: 0
From: Харьков
On Forums: 8 years 10 months
Thanks: 206 time(s)
Ukraine


Не лучший альбом Rome. А ведь предыдущий "The Hyperion Machine" был практически шедевром - на редкость лаконичный и хитовый материал.


Thanks:
Go to the top of the page
  Insert nick Quick quote
+Quote Post

Reply to this topicStart new topic
1 User(s) are reading this topic (1 Guests and 0 Anonymous Users)
0 Members:

 



- Lo-Fi Version Support form
Copyrights and abuse reports form
Time is now: 16th August 2018 - 11:24:50