Welcome Guest ( Log In | Register )

> И неформату есть предел.

Рэп/хип-хоп/шансон/поп удаляются. Для них есть свои порталы.

> Current 93 - The Stars On Their Horsies (2018), Experimental, Industrial (D31)
post Jun 10 2018, 13:40:46
Post #1

0,5 минералки и шоколадка
**************
Group: Металариец
Posts: 2,815
Releases: 120
From: Karelia
On Forums: 9 years 5 months
Thanks: 3759 time(s)
NATO


(IMG:http://metalarea.org/images/audiocovers/2018_Jun/acov_tid306967_thumb.jpg)

*Artist: Current 93
*Album: The Stars On Their Horsies
*Year: 2018
*Genre: Experimental, Industrial
*Country: United Kingdom (IMG:http://metalarea.org/forum/style_images/flags/United%20Kingdom.png)
*Format: mp3@CBR320kbps
*Size: 84MB

Tracklist:
01. The Stars on Their Horsies
******************************
Total playing time: 39:39

Technical info
(IMG:http://metalarea.org/images/spectrogram/2018_Jun/b5cd09f92681135882000a224c7e5b41.png)
Input File: Current 93 - The Stars on Their Horsies.mp3
Channels : 2
Sample Rate : 44100
Precision : 16-bit
Duration : 00:39:39.90 = 104953546 samples = 178492 CDDA sectors
File Size : 95.2M
Bit Rate : 320k
Sample Encoding: MPEG audio (layer I, II or III)



Register


Go to the top of the page
  Insert nick Quick quote
+Quote Post
 
Start new topic
Replies (1 - 1)
post Jun 12 2018, 11:37:08
Post #2

Семь Литров
*******
Group: Металариец
Posts: 729
Releases: 0
From: Харьков
On Forums: 9 years 2 weeks
Thanks: 229 time(s)
Ukraine


Надо послушать. "I Am the Last of All the Field That Fell (A Channel)" мне вполне зашел.
Go to the top of the page
  Insert nick Quick quote
+Quote Post

Reply to this topicStart new topic
2 User(s) are reading this topic (2 Guests and 0 Anonymous Users)
0 Members:

 



- Lo-Fi Version Support form
Copyrights and abuse reports form
Time is now: 16th October 2018 - 06:52:03