Welcome Guest ( Log In | Register )

> Правила / Rules

Тут только для чтения лежат низкобитрейтные (<192kbps) релизы, для которых есть аналоги в высокобитрейтных форумах.

Here goes (and stand in read only mode) low bitrate releases (<192kbps) which were already replaced by high bitrate releases in corresponding forums.

> Battleroar - Codex Epicus (2018), Epic Heavy/Power Metal
post Jun 10 2018, 18:53:08
Post #1

Маньяк
**********
Group: Металариец
Posts: 1,162
Releases: 977
From: Одесса
On Forums: 10 years 2 weeks
Thanks: 7600 time(s)
Ukraine


(IMG:http://metalarea.org/images/audiocovers/2018_Jun/acov_tid306975_thumb.jpg)

*Artist: Battleroar
*Album: Codex Epicus
*Year: 2018
*Genre: Epic Heavy/Power Metal
*Country: Greece (IMG:http://metalarea.org/forum/style_images/flags/Greece.png)
*Format: mp3@CBR128kbps (IMG:http://metalarea.org/images/bit_low.gif)
*Size: 48MB

Tracklist:
1. Awakening the Muse 02:07
2. We Shall Conquer 07:46
3. Sword of the Flame 07:25
4. Chronicles of Might 06:22
5. The Doom of Medusa 08:21
6. Palace of the Martyrs 05:28
7. Kings of Old 04:25
8. Enchanting Threnody 07:24
******************************
Total playing time: 49:18



Extended info
Line - up:
Alex Papadiamantis - Violin
Kostas "H.K." Tzortzis - Guitars (Arpyian Horde)
Stavros Aivaliotis - Bass (ex-Bloodstained, ex-Angelo Perlepes' Mystery, ex-Fading Reality)
Gerrit Mutz - Vocals (Angel of Damnation, Dawn of Winter, Sacred Steel, ex-Tragedy Divine, ex-Cemetery, ex-Variety of Arts, ex-Astral Door)
Gregory Vlachos - Drums (ex-Marauder, ex-Sorrows Path)
Michael Kontogiorgis - Guitars (ex-Εξόριστοι)

Guest/Session:
Mark Shelton - Vocals, Guitars (lead) (track 3) (Manilla Road, Hellwell, Mark Shelton, Riddlemaster, The Shark Project, ex-Apocalypse, ex-Circus Maximus, ex-Embryo, ex-Shag Nasty, ex-The Herd, ex-Tumbleweed)

(IMG:https://www.metal-archives.com/images/5/1/2/1/5121_photo.jpg?4919)


Technical info
(IMG:http://metalarea.org/images/spectrogram/2018_Jun/170541c771640352fda323bd8b0204f4.png)
Input File: 02. We Shall Conquer.mp3
Channels : 2
Sample Rate : 44100
Precision : 16-bit
Duration : 00:07:46.26 = 20562154 samples = 34969.6 CDDA sectors
File Size : 7.46M
Bit Rate : 128k
Sample Encoding: MPEG audio (layer I, II or III)
Comments :
Title=We Shall Conquer
Artist=Battleroar
Album=Codex Epicus
Tracknumber=2
Year=2018
Genre=Epic Heavy / Power Metal



Register


Go to the top of the page
  Insert nick Quick quote
+Quote Post
 
Start new topic
Replies (1 - 2)
post Jun 11 2018, 07:17:06
Post #2

Наливай!
**************
Group: Металариец
Posts: 5,026
Releases: 27
From: Москва-Бибирево
On Forums: 10 years 3 months
Thanks: 2333 time(s)
Russian Federation


Во, дядьку Шелтона заграбастали в гостевые..

Но качества подождем...
Go to the top of the page
  Insert nick Quick quote
+Quote Post
post Jun 11 2018, 13:48:34
Post #3

Победитель судьбы
**************
Group: Металариец
Posts: 4,992
Releases: 0
From: Страны Мамонтов
On Forums: 11 years 4 months
Thanks: 1698 time(s)
Antarctica


Ого, дядька Gerrit Mutz на вокале...

Послухаю, не дожидаясь качества...
Go to the top of the page
  Insert nick Quick quote
+Quote Post

Причина закрытия (DarkHorde 15-06-2018): Battleroar - Codex Epicus (2018)
Closed TopicStart new topic
2 User(s) are reading this topic (2 Guests and 0 Anonymous Users)
0 Members:

 



- Lo-Fi Version Support form
Copyrights and abuse reports form
Time is now: 21st June 2018 - 09:29:52