Welcome Guest ( Log In | Register )

> Repulsive Slaughter - Guesthouse Of Screams (2011), Death Metal
post Jun 11 2018, 01:09:29
Post #1

Подвал
**************
Group: Металариец
Posts: 12,161
Releases: 6860
From: Far East (Khabarovsk)
On Forums: 9 years 4 months
Thanks: 62615 time(s)
Russian Federation


(IMG:http://metalarea.org/images/audiocovers/2018_Jun/acov_tid306980_thumb.jpg)

*Artist: Repulsive Slaughter
*Album: Guesthouse Of Screams
*Year: 2011
*Genre: Death Metal
*Country: Netherlands (IMG:http://metalarea.org/forum/style_images/flags/Netherlands.png)
*Format: mp3@CBR128kbps (IMG:http://metalarea.org/images/bit_low.gif)
*Size: 37MB

Tracklist:
1. Repulsively Slaughtered 04:33
2. Racing Demons 04:29
3. Passion For Death 04:13
4. My First Victim 02:54
5. Hooligans 03:31
6. Guesthouse Of Screams 02:49
7. Legendary Undead 04:54
8. Kitchen Of The Cannibal 04:44
9. Keep Me Caged 03:14
10. Mark Of A Madman 05:01
******************************
Total playing time: 40:22




Extended info
Formed from the ashes of Midian.


Technical info
(IMG:http://metalarea.org/images/spectrogram/2018_Jun/b50be894c2cbb299592029180b113adb.png)
Input File: 06-Guesthouse of Screams.mp3
Channels : 2
Sample Rate : 44100
Precision : 16-bit
Duration : 00:02:49.22 = 7462382 samples = 12691.1 CDDA sectors
File Size : 2.71M
Bit Rate : 128k
Sample Encoding: MPEG audio (layer I, II or III)
Comments :
Title=Guesthouse of Screams
Artist=Repulsive Slaughter
Album=Guesthouse of Screams
Tracknumber=06
Year=2011
Genre=Death Metal



Register


Thanks:
(1) Rosen,
Go to the top of the page
  Insert nick Quick quote
+Quote Post
 
Start new topic
Replies (1 - 3)
post Jun 11 2018, 10:58:22
Post #2

Group: Подсевший
Posts: 48
Releases: 0
From: Kharkov
On Forums: 1 year 3 weeks
Thanks: 5 time(s)
Ukraine


Proteus_666, ссылка битая!обнови ссылку,или перезалейте в други ссылки!

Go to the top of the page
  Insert nick Quick quote
+Quote Post
post Jun 12 2018, 11:39:29
Post #3

Group: Подсевший
Posts: 48
Releases: 0
From: Kharkov
On Forums: 1 year 3 weeks
Thanks: 5 time(s)
Ukraine


Proteus_666, Салют,или перезалейте альбом на yandex!
Go to the top of the page
  Insert nick Quick quote
+Quote Post
post Jun 12 2018, 14:27:43
Post #4

Два Литра
**
Group: Завсегдатай
Posts: 141
Releases: 0
On Forums: 8 months 3 weeks
Thanks: 165 time(s)
Unknown


ЦИТАТА(Albert66613 @ Jun 11 2018, 10:58:22) *
Proteus_666, ссылка битая!обнови ссылку,или перезалейте в други ссылки!

Чо издеваешься нормальная ссыль , за секунду скачал .Проверь у себя . (IMG:style_emoticons/default/23.gif)
Go to the top of the page
  Insert nick Quick quote
+Quote Post

Reply to this topicStart new topic
2 User(s) are reading this topic (2 Guests and 0 Anonymous Users)
0 Members:

 



- Lo-Fi Version Support form
Copyrights and abuse reports form
Time is now: 21st June 2018 - 09:28:40