Welcome Guest ( Log In | Register )

 
Reply to this topicStart new topic
> Antipathy - Removal Of The Mind [ep] (2003), Death Metal
post Jun 11 2018, 03:18:45
Post #1

Подвал
**************
Group: Металариец
Posts: 12,572
Releases: 7072
From: Far East (Khabarovsk)
On Forums: 9 years 8 months
Thanks: 65349 time(s)
Russian Federation


(IMG:http://metalarea.org/images/audiocovers/2018_Jun/acov_tid306984.jpg)

*Artist: Antipathy
*Album: Removal Of The Mind [ep]
*Year: 2003
*Genre: Death Metal
*Country: United States (IMG:http://metalarea.org/forum/style_images/flags/United%20States.png)
*Format: mp3@CBR192kbps
*Size: 19MB

Tracklist:
1. Headaches 03:06
2. Lost 02:57
3. Devoid 03:11
4. Removal Of The Mind 04:47
******************************
Total playing time: 14:01

(IMG:http://metalarea.org/images/myspace.png)

Extended info
Band from Yonkers, New York.


Technical info
(IMG:http://metalarea.org/images/spectrogram/2018_Jun/c98cee925009fef45d75f9bf59c87add.png)
Input File: 02-Lost.mp3
Channels : 2
Sample Rate : 44100
Precision : 16-bit
Duration : 00:02:55.66 = 7746738 samples = 13174.7 CDDA sectors
File Size : 4.22M
Bit Rate : 192k
Sample Encoding: MPEG audio (layer I, II or III)
Comments :
Title=Lost
Artist=Antipathy (US, NY)
Album=Removal of the Mind
Tracknumber=02
Year=2003
Genre=Death Metal



Register


Go to the top of the page
  Insert nick Quick quote
+Quote Post

Reply to this topicStart new topic
1 User(s) are reading this topic (1 Guests and 0 Anonymous Users)
0 Members:

 



- Lo-Fi Version Support form
Copyrights and abuse reports form
Time is now: 17th October 2018 - 06:49:53