Welcome Guest ( Log In | Register )

 
Reply to this topicStart new topic
> Enigma - Apocalipsis [demo] (1991), Progressive Metal (D5)
post Jun 11 2018, 04:16:57
Post #1

Подвал
**************
Group: Металариец
Posts: 12,161
Releases: 6860
From: Far East (Khabarovsk)
On Forums: 9 years 4 months
Thanks: 62610 time(s)
Russian Federation


(IMG:http://metalarea.org/images/audiocovers/2018_Jun/acov_tid306988_thumb.jpg)

*Artist: Enigma
*Album: Apocalipsis [demo]
*Year: 1991
*Genre: Progressive Metal
*Country: Chile (IMG:http://metalarea.org/forum/style_images/flags/Chile.png)
*Format: mp3@CBR192kbps
*Size: 32MB

Tracklist:
1. Apocalipsis 04:07
2. Angeles De La Muerte 07:29
3. Sueño Real 05:42
4. Metal 06:06
******************************
Total playing time: 23:24



Extended info
Recorded in 1991 by Marco Cusato and Alvaro Cuadra at Attic Studios, Santiago, Chile.
Recorded on 8 tracks.


Technical info
(IMG:http://metalarea.org/images/spectrogram/2018_Jun/87f6fb3537f8337b2e25265e6f141498.png)
Input File: 03-Sueño Real.mp3
Channels : 2
Sample Rate : 44100
Precision : 16-bit
Duration : 00:05:41.97 = 15080833 samples = 25647.7 CDDA sectors
File Size : 8.21M
Bit Rate : 192k
Sample Encoding: MPEG audio (layer I, II or III)
Comments :
Title=SueГ±o Real
Artist=Enigma
Album=Apocalipsis (Demo)
Tracknumber=3
Year=1991
Genre=Progressive Metal



Register


Go to the top of the page
  Insert nick Quick quote
+Quote Post

Reply to this topicStart new topic
2 User(s) are reading this topic (2 Guests and 0 Anonymous Users)
0 Members:

 



- Lo-Fi Version Support form
Copyrights and abuse reports form
Time is now: 20th June 2018 - 13:59:14