Welcome Guest ( Log In | Register )

 
Reply to this topicStart new topic
> Afterdark - Fatal Morgana [demo] (1987), Heavy Metal
post Jun 11 2018, 04:26:17
Post #1

Подвал
**************
Group: Металариец
Posts: 12,583
Releases: 7078
From: Far East (Khabarovsk)
On Forums: 9 years 8 months
Thanks: 65432 time(s)
Russian Federation


(IMG:http://metalarea.org/images/audiocovers/2018_Jun/acov_tid306989_thumb.jpg)

*Artist: Afterdark
*Album: Fatal Morgana [demo]
*Year: 1987
*Genre: Heavy Metal
*Country: Netherlands (IMG:http://metalarea.org/forum/style_images/flags/Netherlands.png)
*Format: mp3@CBR192kbps
*Size: 26MB

Tracklist:
1. The Devil's Cat 03:33
2. The Witches 06:09
3. The God 04:44
4. Fatal Morgana 04:53
******************************
Total playing time: 19:19

Technical info
(IMG:http://metalarea.org/images/spectrogram/2018_Jun/abe4a7937a253941c9846d2188c356f1.png)
Input File: 03-The God.mp3
Channels : 2
Sample Rate : 44100
Precision : 16-bit
Duration : 00:04:44.57 = 12549713 samples = 21343 CDDA sectors
File Size : 6.83M
Bit Rate : 192k
Sample Encoding: MPEG audio (layer I, II or III)
Comments :
Title=The God
Artist=Afterdark (Hol)
Album=Fatal Morgana
Tracknumber=03
Year=1987
Genre=Heavy Metal



Register


Go to the top of the page
  Insert nick Quick quote
+Quote Post

Reply to this topicStart new topic
1 User(s) are reading this topic (1 Guests and 0 Anonymous Users)
0 Members:

 



- Lo-Fi Version Support form
Copyrights and abuse reports form
Time is now: 20th October 2018 - 05:18:21