Welcome Guest ( Log In | Register )

> G.T. Waties - Steal The Thunder (1988), Heavy Metal/Hard Rock
post Jun 11 2018, 05:18:20
Post #1

Подвал
**************
Group: Металариец
Posts: 12,161
Releases: 6860
From: Far East (Khabarovsk)
On Forums: 9 years 4 months
Thanks: 62615 time(s)
Russian Federation


(IMG:http://metalarea.org/images/audiocovers/2018_Jun/acov_tid306992_thumb.jpg)

*Artist: G.T. Waties
*Album: Steal The Thunder
*Year: 1988
*Genre: Heavy Metal/Hard Rock
*Country: United States (IMG:http://metalarea.org/forum/style_images/flags/United%20States.png)
*Format: mp3@CBR320kbps
*Size: 62MB

Tracklist:
1. I Need Love 03:44
2. I Love Em All 05:23
3. Steal The Thunder, Steal The Night 04:59
4. When Are You Coming Back 04:48
5. Free Spirit Rock 05:35
6. Until We Meet Again 02:58
******************************
Total playing time: 27:27

Technical info
(IMG:http://metalarea.org/images/spectrogram/2018_Jun/18937dcc98de7368facf594096d95790.png)
Input File: 01-I Need Love.mp3
Channels : 2
Sample Rate : 44100
Precision : 16-bit
Duration : 00:03:45.07 = 9925543 samples = 16880.2 CDDA sectors
File Size : 9.00M
Bit Rate : 320k
Sample Encoding: MPEG audio (layer I, II or III)
Comments :
Title=I Need Love
Artist=G.T. Waties (US)
Album=Steal the Thunder
Tracknumber=01
Year=1988
Genre=Heavy Metal



Register


Go to the top of the page
  Insert nick Quick quote
+Quote Post
 
Start new topic
Replies (1 - 2)
post Jun 14 2018, 08:11:29
Post #2

South Of Heaven /адепт ВУДУ
**************
Group: Металариец
Posts: 12,533
Releases: 7
From: Санкт-Петербург
On Forums: 8 years 2 months
Thanks: 4503 time(s)
Russian Federation


Ну ничего так, но если негр на облоге значит должен быть рэп и он таки там есть немного)


Thanks:
Go to the top of the page
  Insert nick Quick quote
+Quote Post
post Jun 14 2018, 08:24:53
Post #3

Правь статус, ####!111
**************
Group: Металариец
Posts: 32,181
Releases: 486
On Forums: 9 years 2 weeks
Thanks: 24659 time(s)
Russian Federation


ЦИТАТА(avkruchinin @ Jun 14 2018, 11:11:29) *
если негр на облоге значит должен быть рэп


Да ладно, может быть еще и джазз и блюз например. (IMG:style_emoticons/default/25.gif) Не рэпом единым живы.

Релиз хороший и кондовый, приятно послушать.
Go to the top of the page
  Insert nick Quick quote
+Quote Post

Reply to this topicStart new topic
2 User(s) are reading this topic (2 Guests and 0 Anonymous Users)
0 Members:

 



- Lo-Fi Version Support form
Copyrights and abuse reports form
Time is now: 21st June 2018 - 09:28:46