Welcome Guest ( Log In | Register )

> Sarcophaguts - Exsanguinate [ep] (2018), Blackened Thrash Metal
post Jun 12 2018, 07:30:39
Post #1
BAN
Banned till
Oct 20 2018, 09:33:06



(IMG:http://metalarea.org/images/audiocovers/2018_Jun/acov_tid307026_thumb.jpg)

*Artist: Sarcophaguts
*Album: Exsanguinate [ep]
*Year: 2018
*Genre: Blackened Thrash Metal
*Country: Australia (IMG:http://metalarea.org/forum/style_images/flags/Australia.png)
*Format: mp3@CBR320kbps
*Size: 32MB

Tracklist:
1. Bloodless 02:48
2. The Well 02:12
3. Summoned 03:02
4. Devoid 03:12
5. Dehumanise 02:12
******************************
Total playing time: 13:26




Extended info
Nick Bass
Crofty Drums
Jay Guitars
Kyle Guitars
Glen Vocals



Technical info
(IMG:http://metalarea.org/images/spectrogram/2018_Jun/9b3581b4f6c3613ea9373a959f806bb4.png)
Input File: Sarcophaguts - Exsanguinate - 02 The Well.mp3
Channels : 2
Sample Rate : 44100
Precision : 16-bit
Duration : 00:02:12.58 = 5846910 samples = 9943.72 CDDA sectors
File Size : 5.44M
Bit Rate : 328k
Sample Encoding: MPEG audio (layer I, II or III)
Comments :
Title=The Well
Artist=Sarcophaguts
Album=Exsanguinate
Tracknumber=2
Year=2018



Register


Go to the top of the page
  Insert nick Quick quote
+Quote Post
 
Start new topic
Replies (1 - 1)
post Jun 15 2018, 11:01:23
Post #2

Маньяк
**********
Group: Металариец
Posts: 1,430
Releases: 0
From: Dnipro
On Forums: 10 years 3 months
Thanks: 387 time(s)
Ukraine


Очень даже не плохо.
Go to the top of the page
  Insert nick Quick quote
+Quote Post

Reply to this topicStart new topic
1 User(s) are reading this topic (1 Guests and 0 Anonymous Users)
0 Members:

 



- Lo-Fi Version Support form
Copyrights and abuse reports form
Time is now: 16th October 2018 - 07:22:23