Welcome Guest ( Log In | Register )

 
Reply to this topicStart new topic
> Mangled Corpse - The Summoning Of Satan [demo] (2016), Death Metal
post Jun 12 2018, 08:16:39
Post #1

Подвал
**************
Group: Металариец
Posts: 12,583
Releases: 7078
From: Far East (Khabarovsk)
On Forums: 9 years 8 months
Thanks: 65432 time(s)
Russian Federation


(IMG:http://metalarea.org/images/audiocovers/2018_Jun/acov_tid307027_thumb.JPG)

*Artist: Mangled Corpse
*Album: The Summoning Of Satan [demo]
*Year: 2016
*Genre: Death Metal
*Country: United States (IMG:http://metalarea.org/forum/style_images/flags/United%20States.png)
*Format: mp3@CBR256kbps
*Size: 31MB

Tracklist:
1. La llamada De Lucifer 02:45
2. Offering The Weak 02:43
3. Mangled Corpse 03:46
4. Infected Mind 03:47
5. The Summoning Of Satan 04:14
******************************
Total playing time: 17:15



Extended info
Band from Portland, Oregon.
Recorded at Mangled Corpse's practice space in Puddletown Studios in December of 2015.


Technical info
(IMG:http://metalarea.org/images/spectrogram/2018_Jun/b6aa4022ef030b58ad32e1d3499268a1.png)
Input File: 01-La Llamada De Lucifer.mp3
Channels : 2
Sample Rate : 44100
Precision : 16-bit
Duration : 00:02:45.49 = 7297933 samples = 12411.5 CDDA sectors
File Size : 5.30M
Bit Rate : 256k
Sample Encoding: MPEG audio (layer I, II or III)
Comments :
Title=La Llamada De Lucifer
Artist=Mangled Corpse (US, OR)
Album=The Summoning of Satan
Tracknumber=01
Year=2016
Genre=Death Metal



Register


Thanks:
Go to the top of the page
  Insert nick Quick quote
+Quote Post

Reply to this topicStart new topic
1 User(s) are reading this topic (1 Guests and 0 Anonymous Users)
0 Members:

 



- Lo-Fi Version Support form
Copyrights and abuse reports form
Time is now: 20th October 2018 - 06:04:59