Welcome Guest ( Log In | Register )

 
Reply to this topicStart new topic
> Extraneous - Lonesome Death [demo] (2017), Death Metal
post Jun 12 2018, 08:23:27
Post #1

Подвал
**************
Group: Металариец
Posts: 12,161
Releases: 6860
From: Far East (Khabarovsk)
On Forums: 9 years 4 months
Thanks: 62615 time(s)
Russian Federation


(IMG:http://metalarea.org/images/audiocovers/2018_Jun/acov_tid307028_thumb.jpg)

*Artist: Extraneous
*Album: Lonesome Death [demo]
*Year: 2017
*Genre: Death Metal
*Country: United States (IMG:http://metalarea.org/forum/style_images/flags/United%20States.png)
*Format: mp3@CBR128kbps (IMG:http://metalarea.org/images/bit_low.gif)
*Size: 16MB

Tracklist:
1. Cerebral Necroticism (pt.1) 04:06
2. Exhuming Emptiness 04:36
3. Increased Isolation 04:52
4. Lonesome Death 04:01
******************************
Total playing time: 17:35




Extended info
Band from Portland, Oregon.
Recorded in the winter of 2016 at Underworld Studios, Portland, Oregon.


Technical info
(IMG:http://metalarea.org/images/spectrogram/2018_Jun/b2205b484eae6dbf86fd513bde34b013.png)
Input File: 01-Cerebral Necroticism (pt.1).mp3
Channels : 2
Sample Rate : 44100
Precision : 16-bit
Duration : 00:04:06.18 = 10856318 samples = 18463.1 CDDA sectors
File Size : 4.06M
Bit Rate : 132k
Sample Encoding: MPEG audio (layer I, II or III)
Comments :
Title=Cerebral Necroticism (pt. 1)
Artist=Extraneous
Album=Lonesome Death
Tracknumber=01
Year=2017
Genre=Death Metal



Register


Go to the top of the page
  Insert nick Quick quote
+Quote Post

Reply to this topicStart new topic
1 User(s) are reading this topic (1 Guests and 0 Anonymous Users)
0 Members:

 



- Lo-Fi Version Support form
Copyrights and abuse reports form
Time is now: 21st June 2018 - 09:29:24