Welcome Guest ( Log In | Register )

 
Reply to this topicStart new topic
> Dos Brujos - Dead Spirits [ep] (2017), Instrumental Sludge/Doom Metal (D15)
post Jun 12 2018, 12:10:06
Post #1

Serial Uploader
Group Icon
Group: V.I.P
Posts: 33,121
Releases: 31406
From: Lithuania
On Forums: 10 years 4 months
Thanks: 359184 time(s)
Lithuania


(IMG:https://metalarea.org/images/audiocovers/2018_Jun/acov_tid307036_thumb.jpg)

*Artist: Dos Brujos
*Album: Dead Spirits [ep]
*Year: 2017
*Genre: Instrumental Sludge/Doom Metal
*Country: Austria (IMG:https://metalarea.org/forum/style_images/flags/Austria.png)
*Format: mp3@CBR320kbps
*Size: 46MB

Tracklist:
01. Dead Spirits 19:37
******************************
Total playing time: 19:37





Technical info
(IMG:https://metalarea.org/images/spectrogram/2018_Jun/9a2612b20651d3e334e56617f6884c32.png)
Input File: 01. Dead Spirits.mp3
Channels : 2
Sample Rate : 44100
Precision : 16-bit
Duration : 00:19:37.53 = 51928941 samples = 88314.5 CDDA sectors
File Size : 47.2M
Bit Rate : 321k
Sample Encoding: MPEG audio (layer I, II or III)
Comments :
Title=Dead Spirits
Artist=Dos Brujos
Album=Dead Spirits EP
Tracknumber=1
Year=2017



Register


Thanks:
Go to the top of the page
  Insert nick Quick quote
+Quote Post

Reply to this topicStart new topic
1 User(s) are reading this topic (1 Guests and 0 Anonymous Users)
0 Members:

 



- Lo-Fi Version Support form
Copyrights and abuse reports form
Time is now: 16th October 2018 - 13:11:31