Welcome Guest ( Log In | Register )

> Releases Upload / Добавление релизов

Добавить релиз тут / Click here to add release
Рекомендованные обменники / Recommended file shares

 
Reply to this topicStart new topic
> Dos Brujos - The Witches Of Thessaly (2017), Instrumental Sludge/Doom Metal (D15)
post Jun 12 2018, 12:27:02
Post #1

Serial Uploader
Group Icon
Group: V.I.P
Posts: 32,727
Releases: 31022
From: Lithuania
On Forums: 10 years 1 week
Thanks: 355662 time(s)
Lithuania


(IMG:https://metalarea.org/images/audiocovers/2018_Jun/acov_tid307037_thumb.jpg)

*Artist: Dos Brujos
*Album: The Witches Of Thessaly
*Year: 2017
*Genre: Instrumental Sludge/Doom Metal
*Country: Austria (IMG:https://metalarea.org/forum/style_images/flags/Austria.png)
*Format: mp3@CBR320kbps
*Size: 138MB

Tracklist:
01. Meroe 09:21
02. Panthia 12:22
03. Kirke 13:39
04. The Necromancy Of Erichtho 13:41
05. Hypatia, City Of Magic 14:47
******************************
Total playing time: 1:03:50





Technical info
(IMG:https://metalarea.org/images/spectrogram/2018_Jun/01b7fb0dc1f5619770ad36a248870ad0.png)
Input File: 02. Panthia.mp3
Channels : 2
Sample Rate : 44100
Precision : 16-bit
Duration : 00:12:22.63 = 32749807 samples = 55697 CDDA sectors
File Size : 29.9M
Bit Rate : 322k
Sample Encoding: MPEG audio (layer I, II or III)
Comments :
Title=Panthia
Artist=Dos Brujos
Album=The Witches of Thessaly
Tracknumber=2
Year=2017



Register


Thanks:
(1) Rosen,
Go to the top of the page
  Insert nick Quick quote
+Quote Post

Reply to this topicStart new topic
1 User(s) are reading this topic (1 Guests and 0 Anonymous Users)
0 Members:

 



- Lo-Fi Version Support form
Copyrights and abuse reports form
Time is now: 21st June 2018 - 07:40:15