Welcome Guest ( Log In | Register )

> Releases Upload / Добавление релизов

Добавить релиз тут / Click here to add release
Рекомендованные обменники / Recommended file shares

 
Reply to this topicStart new topic
> Dos Brujos - Styrian Woods [ep] (2017), Instrumental Sludge/Doom Metal (D15)
post Jun 12 2018, 12:40:21
Post #1

Serial Uploader
Group Icon
Group: V.I.P
Posts: 32,692
Releases: 30990
From: Lithuania
On Forums: 10 years 1 week
Thanks: 355593 time(s)
Lithuania


(IMG:https://metalarea.org/images/audiocovers/2018_Jun/acov_tid307038_thumb.jpg)

*Artist: Dos Brujos
*Album: Styrian Woods [ep]
*Year: 2017
*Genre: Instrumental Sludge/Doom Metal
*Country: Austria (IMG:https://metalarea.org/forum/style_images/flags/Austria.png)
*Format: mp3@CBR320kbps
*Size: 129MB

Tracklist:
01. First Wave 11:08
02. Forest 07:44
03. Mist, Trees 11:13
04. Grey Wolf 09:09
05. Myrkwood Ride 18:37
******************************
Total playing time: 57:51





Technical info
(IMG:https://metalarea.org/images/spectrogram/2018_Jun/91ff2cbd1a555d254d311a51d2ef4f5f.png)
Input File: 02. Forest.mp3
Channels : 2
Sample Rate : 44100
Precision : 16-bit
Duration : 00:07:44.61 = 20489081 samples = 34845.4 CDDA sectors
File Size : 18.9M
Bit Rate : 325k
Sample Encoding: MPEG audio (layer I, II or III)
Comments :
Title=Forest
Artist=Dos Brujos
Album=Styrian Woods
Tracknumber=2
Year=2017



Register


Thanks:
(1) Rosen,
Go to the top of the page
  Insert nick Quick quote
+Quote Post

Reply to this topicStart new topic
2 User(s) are reading this topic (2 Guests and 0 Anonymous Users)
0 Members:

 



- Lo-Fi Version Support form
Copyrights and abuse reports form
Time is now: 18th June 2018 - 08:16:24