Welcome Guest ( Log In | Register )

 
Reply to this topicStart new topic
> Dos Brujos - Fuck Off And Jam! Volume IV [ep] (2017), Instrumental Sludge/Doom Metal (D15)
post Jun 12 2018, 12:50:31
Post #1

Serial Uploader
Group Icon
Group: V.I.P
Posts: 33,126
Releases: 31411
From: Lithuania
On Forums: 10 years 4 months
Thanks: 359220 time(s)
Lithuania


(IMG:https://metalarea.org/images/audiocovers/2018_Jun/acov_tid307039_thumb.jpg)

*Artist: Dos Brujos
*Album: Fuck Off And Jam! Volume IV [ep]
*Year: 2017
*Genre: Instrumental Sludge/Doom Metal
*Country: Austria (IMG:https://metalarea.org/forum/style_images/flags/Austria.png)
*Format: mp3@CBR320kbps
*Size: 90MB

Tracklist:
01. Land Of Bonesa 10:14
02. Khabrasthan 16:05
03. The End Times 14:12
******************************
Total playing time: 40:31





Technical info
(IMG:https://metalarea.org/images/spectrogram/2018_Jun/8d6c81ebbe4c6ac89854e6ed3d0a275c.png)
Input File: 02. Khabrasthan.mp3
Channels : 2
Sample Rate : 44100
Precision : 16-bit
Duration : 00:16:05.58 = 42581902 samples = 72418.2 CDDA sectors
File Size : 38.8M
Bit Rate : 321k
Sample Encoding: MPEG audio (layer I, II or III)
Comments :
Title=Khabrasthan
Artist=Dos Brujos
Album=Fuck Off and Jam! Volume IV
Tracknumber=2
Year=2017



Register


Thanks:
Go to the top of the page
  Insert nick Quick quote
+Quote Post

Reply to this topicStart new topic
1 User(s) are reading this topic (1 Guests and 0 Anonymous Users)
0 Members:

 



- Lo-Fi Version Support form
Copyrights and abuse reports form
Time is now: 18th October 2018 - 09:54:59