Welcome Guest ( Log In | Register )

 
Reply to this topicStart new topic
> Dos Brujos - The Cosmic Ocean (2017), Instrumental Sludge/Doom Metal (D15)
post Jun 12 2018, 13:00:16
Post #1

Serial Uploader
Group Icon
Group: V.I.P
Posts: 32,927
Releases: 31223
From: Lithuania
On Forums: 10 years 2 months
Thanks: 357490 time(s)
Lithuania


(IMG:https://metalarea.org/images/audiocovers/2018_Jun/acov_tid307040_thumb.jpg)

*Artist: Dos Brujos
*Album: The Cosmic Ocean
*Year: 2017
*Genre: Instrumental Sludge/Doom Metal
*Country: Austria (IMG:https://metalarea.org/forum/style_images/flags/Austria.png)
*Format: mp3@CBR320kbps
*Size: 111MB

Tracklist:
01. The Way To The Stars (Intro) 02:18
02. Titán Desde Saturno 10:23
03. Psilocybin 08:03
04. Dead Moon 06:03
05. Endless, Void 21:54
******************************
Total playing time: 48:41





Technical info
(IMG:https://metalarea.org/images/spectrogram/2018_Jun/fbc43eeaf32ba332853a3d212523c9d8.png)
Input File: 02. Titán desde Saturno.mp3
Channels : 2
Sample Rate : 44100
Precision : 16-bit
Duration : 00:10:23.58 = 27499658 samples = 46768.1 CDDA sectors
File Size : 25.0M
Bit Rate : 321k
Sample Encoding: MPEG audio (layer I, II or III)
Comments :
Title=TitГЎn desde Saturno
Artist=Dos Brujos
Album=The Cosmic Ocean
Tracknumber=2
Year=2017



Register


Thanks:
Go to the top of the page
  Insert nick Quick quote
+Quote Post

Reply to this topicStart new topic
1 User(s) are reading this topic (1 Guests and 0 Anonymous Users)
0 Members:

 



- Lo-Fi Version Support form
Copyrights and abuse reports form
Time is now: 15th August 2018 - 19:51:36