Welcome Guest ( Log In | Register )

 
Reply to this topicStart new topic
> XKeep The Fightx - El Hielo De Vuestro Infierno No Apagará Nuestro Fuego (2017), Metalcore
post Jun 12 2018, 13:11:48
Post #1

Маньяк
**********
Group: Металариец
Posts: 1,172
Releases: 115
On Forums: 9 years 2 weeks
Thanks: 898 time(s)
Kazakhstan


(IMG:http://metalarea.org/images/audiocovers/2018_Jun/acov_tid307041_thumb.jpg)

*Artist: XKeep The Fightx
*Album: El Hielo De Vuestro Infierno No Apagará Nuestro Fuego
*Year: 2017
*Genre: Metalcore
*Country: Spain (IMG:http://metalarea.org/forum/style_images/flags/Spain.png)
*Format: mp3@VBR267kbps
*Size: 48MB

Tracklist:
1.Intro 04:10
2.Compromiso 02:37
3.Con rabia contenida Ft. Ángela de Sküinkle 02:35
4.Liberación animal 02:39
5.Doble Moral 03:20
6.Revuelta 04:08
7.Afrontando la verdad 05:25
******************************
Total playing time: 24:54



Technical info
(IMG:http://metalarea.org/images/spectrogram/2018_Jun/1a279898c16e71fb3efa336035ed338c.png)
Input File: 07 Afrontando la verdad.mp3
Channels : 2
Sample Rate : 44100
Precision : 16-bit
Duration : 00:05:25.88 = 14371176 samples = 24440.8 CDDA sectors
File Size : 10.5M
Bit Rate : 257k
Sample Encoding: MPEG audio (layer I, II or III)



Register


Thanks:
(1) Rosen,
Go to the top of the page
  Insert nick Quick quote
+Quote Post

Reply to this topicStart new topic
1 User(s) are reading this topic (1 Guests and 0 Anonymous Users)
0 Members:

 



- Lo-Fi Version Support form
Copyrights and abuse reports form
Time is now: 15th August 2018 - 19:51:43