Welcome Guest ( Log In | Register )

> Releases Upload / Добавление релизов

Добавить релиз тут / Click here to add release
Рекомендованные обменники / Recommended file shares

 
Reply to this topicStart new topic
> Dos Brujos - Brotherhood Sessions (2017), Instrumental Sludge/Doom Metal (D15)
post Jun 12 2018, 13:12:54
Post #1

Serial Uploader
Group Icon
Group: V.I.P
Posts: 32,692
Releases: 30990
From: Lithuania
On Forums: 10 years 1 week
Thanks: 355593 time(s)
Lithuania


(IMG:https://metalarea.org/images/audiocovers/2018_Jun/acov_tid307042_thumb.jpg)

*Artist: Dos Brujos
*Album: Brotherhood Sessions
*Year: 2017
*Genre: Instrumental Sludge/Doom Metal
*Country: Austria (IMG:https://metalarea.org/forum/style_images/flags/Austria.png)
*Format: mp3@CBR320kbps
*Size: 134MB

Tracklist:
01. The Beyond 05:28
02. Monolyth 08:55
03. Phyle 11:29
04. Oikos 13:54
05. La Hermandad 12:45
******************************
Total playing time: 52:31





Technical info
(IMG:https://metalarea.org/images/spectrogram/2018_Jun/37d371c33af9b01e6daa1330d02e19f9.png)
Input File: 02. Monolyth.mp3
Channels : 2
Sample Rate : 44100
Precision : 16-bit
Duration : 00:08:55.61 = 23620489 samples = 40170.9 CDDA sectors
File Size : 21.5M
Bit Rate : 321k
Sample Encoding: MPEG audio (layer I, II or III)
Comments :
Title=Monolyth
Artist=Dos Brujos
Album=Brotherhood Sessions
Tracknumber=2
Year=2017



Register


Thanks:
(1) Rosen,
Go to the top of the page
  Insert nick Quick quote
+Quote Post

Reply to this topicStart new topic
1 User(s) are reading this topic (1 Guests and 0 Anonymous Users)
0 Members:

 



- Lo-Fi Version Support form
Copyrights and abuse reports form
Time is now: 18th June 2018 - 08:19:22