Welcome Guest ( Log In | Register )

> Releases Upload / Добавление релизов

Добавить релиз тут / Click here to add release
Рекомендованные обменники / Recommended file shares

 
Reply to this topicStart new topic
> Revelation Attic - The Cradle Of Life (2018), Melodic/Symphonic Metal
post Jun 12 2018, 13:17:02
Post #1

Serial Uploader
Group Icon
Group: V.I.P
Posts: 32,727
Releases: 31022
From: Lithuania
On Forums: 10 years 1 week
Thanks: 355662 time(s)
Lithuania


(IMG:http://metalarea.org/images/audiocovers/2018_Jun/acov_tid307043_thumb.jpg)

*Artist: Revelation Attic
*Album: The Cradle Of Life
*Year: 2018
*Genre: Melodic/Symphonic Metal
*Country: Latvia (IMG:http://metalarea.org/forum/style_images/flags/Latvia.png)
*Format: mp3@CBR320kbps
*Size: 86MB

Tracklist:
01. Upside Down
02. The Lord of Lies (feat. Arturs Davids)
03. Hiding Place
04. Where Are You My King
05. Never Again
06. Don't Need Those Saints
07. I'll Put You Down on Your Knees
08. The Wolf Song
09. This Woman's Work
******************************
Total playing time: 37:41



Technical info
(IMG:http://metalarea.org/images/spectrogram/2018_Jun/0db2e90884409134eb1c52d4bc59d3ff.png)
Input File: 02. The Lord of Lies (feat. Arturs Davids).mp3
Channels : 2
Sample Rate : 44100
Precision : 16-bit
Duration : 00:04:05.63 = 10832239 samples = 18422.2 CDDA sectors
File Size : 9.83M
Bit Rate : 320k
Sample Encoding: MPEG audio (layer I, II or III)
Comments :
Title=The Lord of Lies (feat. Arturs Davids)
Artist=Revelation Attic, Arturs Davids
Album=The Cradle of Life
Tracknumber=2/9
Year=2018



Register


Go to the top of the page
  Insert nick Quick quote
+Quote Post

Reply to this topicStart new topic
1 User(s) are reading this topic (1 Guests and 0 Anonymous Users)
0 Members:

 



- Lo-Fi Version Support form
Copyrights and abuse reports form
Time is now: 21st June 2018 - 07:40:30