Welcome Guest ( Log In | Register )

 
Reply to this topicStart new topic
> Schwarzach - Sieben Seelen (2017), Black/Death/Industrial Metal
post Jun 12 2018, 15:10:32
Post #1

Маньяк
**********
Group: Металариец
Posts: 1,166
Releases: 981
From: Одесса
On Forums: 10 years 2 weeks
Thanks: 7608 time(s)
Ukraine


(IMG:http://metalarea.org/images/audiocovers/2018_Jun/acov_tid307047_thumb.jpg)

*Artist: Schwarzach
*Album: Sieben Seelen
*Year: 2017
*Genre: Black/Death/Industrial Metal
*Country: Germany (IMG:http://metalarea.org/forum/style_images/flags/Germany.png)
*Format: mp3@CBR320kbps
*Size: 103MB

Tracklist:
1. Ein Sturm zieht auf 05:48
2. Das Kastell 04:54
3. Heimgesucht 05:39
4. Pein und Läuterung 07:02
5. Das Land zu unseren Füßen 06:14
6. An dunkler Aue 05:49
7. lixiere der Offenbarung 05:30
8. Eine sterbende Epoche 02:08
******************************
Total playing time: 43:04



Extended info
В ЛОУ

Line - up:

Schwarzensee - All instruments, Programming
Schwarzmaler - Vocals

(IMG:https://www.metal-archives.com/images/1/2/8/1/128162_photo.jpg)


Technical info
(IMG:http://metalarea.org/images/spectrogram/2018_Jun/ee54eb301d3f0c12c10175d28b1ed914.png)
Input File: 04. Pein und Läuterung.mp3
Channels : 2
Sample Rate : 48000
Precision : 16-bit
Duration : 00:07:02.83 = 20296080 samples ~ 31712.6 CDDA sectors
File Size : 17.0M
Bit Rate : 321k
Sample Encoding: MPEG audio (layer I, II or III)
Comments :
Title=Pein und Läuterung
Artist=Schwarzach
Album=Sieben Seelen
Tracknumber=4
Year=2017
Genre=Black / Death / Industrial Metal



Register


Go to the top of the page
  Insert nick Quick quote
+Quote Post

Reply to this topicStart new topic
1 User(s) are reading this topic (1 Guests and 0 Anonymous Users)
0 Members:

 



- Lo-Fi Version Support form
Copyrights and abuse reports form
Time is now: 23rd June 2018 - 05:10:23