Welcome Guest ( Log In | Register )

 
Reply to this topicStart new topic
> Scorched By The Flaming Goat - Debate [single] (2018), Symphonic/Blackened Death Metal/Deathcore
post Jun 12 2018, 15:36:48
Post #1

Маньяк
**********
Group: Металариец
Posts: 1,329
Releases: 1122
From: Одесса
On Forums: 10 years 2 months
Thanks: 8610 time(s)
Ukraine


(IMG:http://metalarea.org/images/audiocovers/2018_Jun/acov_tid307048_thumb.jpg)

*Artist: Scorched By The Flaming Goat
*Album: Debate [single]
*Year: 2018
*Genre: Symphonic/Blackened Death Metal/Deathcore
*Country: Chile (IMG:http://metalarea.org/forum/style_images/flags/Chile.png)
*Format: mp3@CBR320kbps
*Size: 13MB

Tracklist:
1. Debate 05:18
******************************
Total playing time: 5:18



Extended info
Line - up:

Marcel - Bass
Rodolfo - Drums
Benjamin - Guitars
Tomas - Guitars
Ignacio - Vocals

(IMG:https://f4.bcbits.com/img/0003525359_10.jpg)


Technical info
(IMG:http://metalarea.org/images/spectrogram/2018_Jun/77a482cafca2d0566491589c90c19794.png)
Input File: 01 Debate.mp3
Channels : 2
Sample Rate : 44100
Precision : 16-bit
Duration : 00:05:10.57 = 13695917 samples = 23292.4 CDDA sectors
File Size : 12.4M
Bit Rate : 320k
Sample Encoding: MPEG audio (layer I, II or III)
Comments :
Title=Debate
Artist=Scorched By The Flaming Goat
Album=Debate (Single)
Tracknumber=1
Year=2018
Genre=Symphonic / Blackened Death Metal / Deathcore



Register


Go to the top of the page
  Insert nick Quick quote
+Quote Post

Reply to this topicStart new topic
1 User(s) are reading this topic (1 Guests and 0 Anonymous Users)
0 Members:

 



- Lo-Fi Version Support form
Copyrights and abuse reports form
Time is now: 15th August 2018 - 19:51:18