Welcome Guest ( Log In | Register )

 
Reply to this topicStart new topic
> Screams Of Death - Machine Men [ep] (2017), Death Metal
post Jun 12 2018, 16:26:23
Post #1

Маньяк
**********
Group: Металариец
Posts: 1,330
Releases: 1122
From: Одесса
On Forums: 10 years 2 months
Thanks: 8635 time(s)
Ukraine


(IMG:http://metalarea.org/images/audiocovers/2018_Jun/acov_tid307050_thumb.jpg)

*Artist: Screams Of Death
*Album: Machine Men [ep]
*Year: 2017
*Genre: Death Metal
*Country: Sweden (IMG:http://metalarea.org/forum/style_images/flags/Sweden.png)
*Format: mp3@CBR320kbps
*Size: 61MB

Tracklist:
1. Machine Men 04:30
2. Iceman 03:08
3. Eyes Smashed to Liquid 04:05
4. Malicious Demise 05:49
5. Mortem Ut Salutarent Tyrannum 04:17
6. Berzerk 03:43
******************************
Total playing time: 25:32





Technical info
(IMG:http://metalarea.org/images/spectrogram/2018_Jun/41e75e53c96fa5b35b9a1bc0d7de48e1.png)
Input File: 06. Berzerk.mp3
Channels : 2
Sample Rate : 48000
Precision : 16-bit
Duration : 00:03:43.80 = 10742544 samples ~ 16785.2 CDDA sectors
File Size : 8.96M
Bit Rate : 320k
Sample Encoding: MPEG audio (layer I, II or III)
Comments :
Title=Berzerk
Artist=Screams of Death
Album=Machine Men (EP)
Tracknumber=6
Year=2017
Genre=22



Register


Go to the top of the page
  Insert nick Quick quote
+Quote Post

Reply to this topicStart new topic
1 User(s) are reading this topic (1 Guests and 0 Anonymous Users)
0 Members:

 



- Lo-Fi Version Support form
Copyrights and abuse reports form
Time is now: 16th August 2018 - 12:38:09