Welcome Guest ( Log In | Register )

> Releases Upload / Добавление релизов

Добавить релиз тут / Click here to add release
Рекомендованные обменники / Recommended file shares

> Wømb - Taciturn [ep] (2018), Black Metal (D7)
post Jun 12 2018, 19:07:30
Post #1

Три Литра
***
Group: Завсегдатай
Posts: 231
Releases: 28
On Forums: 4 years 7 months
Thanks: 452 time(s)
Serbia


(IMG:http://metalarea.org/images/audiocovers/2018_Jun/acov_uid106123_e654cb91f7e0db96303d823333fba3a3_thumb.jpg)

*Artist: Wømb
*Album: Taciturn [ep]
*Year: 2018
*Genre: Black Metal
*Country: Portugal (IMG:http://metalarea.org/forum/style_images/flags/Portugal.png)
*Format: mp3@CBR320kbps
*Size: 37MB

Tracklist:
1. He is the Preacher of the Gods 01:49
2. In the Abyss of this Darkness in which the Spirit has Died to Itself 01:56
3. Nychthemeral 01:46
4. Master/Slave 01:05
5. Ritual Union Through Sex Magick 03:00
6. Hic Est Sanguis Meus 01:57
7. Ekénōsen 02:35
******************************
Total playing time: 14:08

Technical info
(IMG:http://metalarea.org/images/spectrogram/2018_Jun/d59bae4163bd6d83766a727a28a82236.png)
Input File: 01 - Wømb - He is the Preacher of the Gods.mp3
Channels : 2
Sample Rate : 44100
Precision : 16-bit
Duration : 00:01:49.02 = 4807870 samples = 8176.65 CDDA sectors
File Size : 4.44M
Bit Rate : 326k
Sample Encoding: MPEG audio (layer I, II or III)
Comments :
Title=01 - WГёmb - He is the Preacher of the Gods
Artist=WГёmb
Album=Taciturn
Tracknumber=1
Year=2017



Register


This post has been edited by Borderline1991: Jun 13 2018, 18:19:09


Go to the top of the page
  Insert nick Quick quote
+Quote Post
 
Start new topic
Replies (1 - 1)
post Jun 16 2018, 17:37:16
Post #2

...Only Death Is Real...
**************
Group: Металариец
Posts: 2,626
Releases: 15
On Forums: 7 years 11 months
Thanks: 1615 time(s)
Russian Federation


Go to the top of the page
  Insert nick Quick quote
+Quote Post

Reply to this topicStart new topic
1 User(s) are reading this topic (1 Guests and 0 Anonymous Users)
0 Members:

 



- Lo-Fi Version Support form
Copyrights and abuse reports form
Time is now: 23rd June 2018 - 08:58:42