Welcome Guest ( Log In | Register )

> И неформату есть предел.

Рэп/хип-хоп/шансон/поп удаляются. Для них есть свои порталы.

 
Reply to this topicStart new topic
> Killing Joke - Pylon (2015), Industrial Metal/Post-Punk (D7)
post Jun 12 2018, 19:12:00
Post #1

Три Литра
***
Group: Завсегдатай
Posts: 231
Releases: 28
On Forums: 4 years 7 months
Thanks: 453 time(s)
Serbia


(IMG:http://metalarea.org/images/audiocovers/2018_Jun/acov_tid307055_thumb.jpg)

*Artist: Killing Joke
*Album: Pylon
*Year: 2015
*Genre: Industrial Metal/Post-Punk
*Country: United Kingdom (IMG:http://metalarea.org/forum/style_images/flags/United%20Kingdom.png)
*Format: mp3@CBR320kbps
*Size: 127MB

Tracklist:
1 Autonomous Zone 6:44
2 Dawn Of The Hive 6:29
3 New Cold War 6:51
4 Euphoria 4:17
5 New Jerusalem 6:11
6 War On Freedom 4:40
7 Big Buzz 5:03
8 Delete 5:00
9 I Am The Virus 5:39
10 Into The Unknown 6:15
******************************
Total playing time: 57:09

Technical info
(IMG:http://metalarea.org/images/spectrogram/2018_Jun/430e6e9d4b1e683bada68b09d2701b52.png)
Input File: 07 - Big Buzz.mp3
Channels : 2
Sample Rate : 44100
Precision : 16-bit
Duration : 00:05:03.00 = 13362256 samples = 22724.9 CDDA sectors
File Size : 12.2M
Bit Rate : 323k
Sample Encoding: MPEG audio (layer I, II or III)
Comments :
Title=Big Buzz
Artist=Killing Joke
Album=Pylon
Tracknumber=7/10
Year=2015
Genre=Industrial



Register


This post has been edited by Borderline1991: Jun 13 2018, 18:08:52


Thanks:
Go to the top of the page
  Insert nick Quick quote
+Quote Post

Reply to this topicStart new topic
1 User(s) are reading this topic (1 Guests and 0 Anonymous Users)
0 Members:

 



- Lo-Fi Version Support form
Copyrights and abuse reports form
Time is now: 23rd June 2018 - 18:21:40