Welcome Guest ( Log In | Register )

 
Reply to this topicStart new topic
> Fetid Zombie & Battlestorm - Defiling The Altar Of Gods [split] (2012), Death Metal | Black/Death Metal (D)
post Jun 12 2018, 19:54:28
Post #1

Правь статус, ####!616
**************
Group: Металариец
Posts: 4,398
Releases: 3004
From: 55°35’N 38°08’E
On Forums: 10 years 1 month
Thanks: 56352 time(s)
Unknown


(IMG:http://metalarea.org/images/audiocovers/2018_Jun/acov_tid307059_thumb.jpg)

*Artist: Fetid Zombie & Battlestorm
*Album: Defiling The Altar Of Gods [split]
*Year: 2012
*Genre: Death Metal | Black/Death Metal
*Country: United States (IMG:http://metalarea.org/forum/style_images/flags/United%20States.png) | Singapore (IMG:http://metalarea.org/forum/style_images/flags/Singapore.png)
*Format: mp3@CBR320kbps
*Size: 56MB

Tracklist:
Fetid Zombie:
1.Noxious Belief 04:08
2.Hellish Strike 03:38
3.Fullmoon Necrophilia (Zemial cover) 02:19
Battlestorm:
4.Genocide Regiment 03:20
5.Total Desaster (Destruction cover) 03:39
6.A World's End 04:50
******************************
Total playing time: 21:54






Technical info
(IMG:http://metalarea.org/images/spectrogram/2018_Jun/4e9d7b51bf13885987eee25b8c4f4165.png)
Input File: 01. Fetid Zombie - Noxious Belief.mp3
Channels : 2
Sample Rate : 44100
Precision : 16-bit
Duration : 00:04:08.00 = 10936800 samples = 18600 CDDA sectors
File Size : 10.0M
Bit Rate : 323k
Sample Encoding: MPEG audio (layer I, II or III)
Comments :
Title=Noxious Belief
Artist=Fetid Zombie
Album=Defiling The Altar Of Gods
Tracknumber=01/06
Year=2012
Genre=Metal



Register


Go to the top of the page
  Insert nick Quick quote
+Quote Post

Reply to this topicStart new topic
1 User(s) are reading this topic (1 Guests and 0 Anonymous Users)
0 Members:

 



- Lo-Fi Version Support form
Copyrights and abuse reports form
Time is now: 16th August 2018 - 12:37:56