Welcome Guest ( Log In | Register )

 
Reply to this topicStart new topic
> Nocturno - Musica In Universum (2018), Black Metal
post Jun 13 2018, 00:55:28
Post #1

Правь статус, ####!616
**************
Group: Металариец
Posts: 4,407
Releases: 3006
From: 55°35’N 38°08’E
On Forums: 10 years 3 months
Thanks: 56626 time(s)
Unknown


(IMG:http://metalarea.org/images/audiocovers/2018_Jun/acov_tid307068_thumb.jpg)

*Artist: Nocturno
*Album: Musica In Universum
*Year: 2018
*Genre: Black Metal
*Country: Paraguay (IMG:http://metalarea.org/forum/style_images/flags/Paraguay.png)
*Format: mp3@CBR320kbps
*Size: 99MB

Tracklist:
1.Lucifer Light Bearers 04:22
2.Let the Hate Guide Your Sword 04:58
3.I've Come to Claim My Throne 04:35
4.Die Sonne Unter Dem Meer 04:37
5.Battle Cry 03:39
6.Wandering Eternally In A Dimension of Darkness 12:00
7.Udjat 03:35
8.Battle Cry (On a Cold and Cloudy Battlefield) 04:14
******************************
Total playing time: 42:00



Extended info
Recorded: At the Grave Studios in April 2014


Technical info
(IMG:http://metalarea.org/images/spectrogram/2018_Jun/f3e3422ccace15de777c2269d03c4346.png)
Input File: 01 Lucifer Light Bearers.mp3
Channels : 2
Sample Rate : 44100
Precision : 16-bit
Duration : 00:04:22.66 = 11583394 samples = 19699.6 CDDA sectors
File Size : 10.6M
Bit Rate : 323k
Sample Encoding: MPEG audio (layer I, II or III)
Comments :
Title=Lucifer Light Bearers
Artist=Nocturno
Album=Musica In Universum
Tracknumber=1
Year=2018
Genre=Black Metal



Register


Go to the top of the page
  Insert nick Quick quote
+Quote Post

Reply to this topicStart new topic
1 User(s) are reading this topic (1 Guests and 0 Anonymous Users)
0 Members:

 



- Lo-Fi Version Support form
Copyrights and abuse reports form
Time is now: 16th October 2018 - 03:40:10