Welcome Guest ( Log In | Register )

 
Reply to this topicStart new topic
> Nocturno - Under The Laws Of Thelema (2017), Black Metal
post Jun 13 2018, 01:03:34
Post #1

Правь статус, ####!616
**************
Group: Металариец
Posts: 4,408
Releases: 3007
From: 55°35’N 38°08’E
On Forums: 10 years 3 months
Thanks: 56664 time(s)
Unknown


(IMG:http://metalarea.org/images/audiocovers/2018_Jun/acov_tid307069_thumb.jpg)

*Artist: Nocturno
*Album: Under The Laws Of Thelema
*Year: 2017
*Genre: Black Metal
*Country: Paraguay (IMG:http://metalarea.org/forum/style_images/flags/Paraguay.png)
*Format: mp3@CBR320kbps
*Size: 51MB

Tracklist:
1.Destruction Device 03:29
2.They Will Come Again 05:15
3.They Still Deny Miserably 02:59
4.Lucifer's Prayer Chant 01:43
5.Sound of Death 03:59
6.Under the Laws of Thelema 04:05
******************************
Total playing time: 21:30



Extended info
Recorded at the Grave studio, September 2013.


Technical info
(IMG:http://metalarea.org/images/spectrogram/2018_Jun/35e166a6ee310dae3af3eb43881f8615.png)
Input File: 01 Destruction Device.mp3
Channels : 2
Sample Rate : 44100
Precision : 16-bit
Duration : 00:03:29.94 = 9258442 samples = 15745.6 CDDA sectors
File Size : 8.48M
Bit Rate : 323k
Sample Encoding: MPEG audio (layer I, II or III)
Comments :
Title=Destruction Device
Artist=Nocturno
Album=Under the Laws of Thelema
Tracknumber=1
Year=2017
Genre=Black Metal



Register


Go to the top of the page
  Insert nick Quick quote
+Quote Post

Reply to this topicStart new topic
1 User(s) are reading this topic (1 Guests and 0 Anonymous Users)
0 Members:

 



- Lo-Fi Version Support form
Copyrights and abuse reports form
Time is now: 24th October 2018 - 05:58:27