Welcome Guest ( Log In | Register )

 
Reply to this topicStart new topic
> Violet Cold - Sommermorgen Pt. I Innocence (2018), Atmospheric/Post-Black Metal (D10)
post Jun 13 2018, 02:04:37
Post #1

Serial Uploader
Group Icon
Group: V.I.P
Posts: 32,927
Releases: 31223
From: Lithuania
On Forums: 10 years 2 months
Thanks: 357490 time(s)
Lithuania


(IMG:http://metalarea.org/images/audiocovers/2018_Jun/acov_tid307070_thumb.jpg)

*Artist: Violet Cold
*Album: Sommermorgen Pt. I Innocence
*Year: 2018
*Genre: Atmospheric/Post-Black Metal
*Country: Azerbaijan (IMG:http://metalarea.org/forum/style_images/flags/Azerbaijan.png)
*Format: mp3@CBR320kbps
*Size: 91MB

Tracklist:
01. Unschuld 05:08
02. Ein Langer Weg 05:32
03. Life In Moments 04:28
04. Luftschloss 05:09
05. Perception 01:28
06. Fernweh 04:37
07. Nur Die Sonne War Zeuge 02:20
08. Schläfrig 02:39
09. Bring Mich Nach Hause 03:56
10. Geborgenheit 02:37
******************************
Total playing time: 37:54



Technical info
(IMG:http://metalarea.org/images/spectrogram/2018_Jun/2854ee41785f4550bd78b55c96c276af.png)
Input File: 02. Ein Langer Weg.mp3
Channels : 2
Sample Rate : 44100
Precision : 16-bit
Duration : 00:05:32.13 = 14646845 samples = 24909.6 CDDA sectors
File Size : 13.3M
Bit Rate : 320k
Sample Encoding: MPEG audio (layer I, II or III)
Comments :
Title=Ein Langer Weg
Artist=Violet Cold
Album=Sommermorgen, Pt. I: Innocence
Tracknumber=2/11
Year=2018



Register


Go to the top of the page
  Insert nick Quick quote
+Quote Post

Reply to this topicStart new topic
1 User(s) are reading this topic (1 Guests and 0 Anonymous Users)
0 Members:

 



- Lo-Fi Version Support form
Copyrights and abuse reports form
Time is now: 15th August 2018 - 21:14:33