Welcome Guest ( Log In | Register )

 
Reply to this topicStart new topic
> Violet Cold - Sommermorgen Pt. II Joy (2018), Atmospheric/Post-Black Metal (D10)
post Jun 13 2018, 02:07:01
Post #1

Serial Uploader
Group Icon
Group: V.I.P
Posts: 33,070
Releases: 31355
From: Lithuania
On Forums: 10 years 3 months
Thanks: 358673 time(s)
Lithuania


(IMG:http://metalarea.org/images/audiocovers/2018_Jun/acov_tid307071_thumb.jpg)

*Artist: Violet Cold
*Album: Sommermorgen Pt. II Joy
*Year: 2018
*Genre: Atmospheric/Post-Black Metal
*Country: Azerbaijan (IMG:http://metalarea.org/forum/style_images/flags/Azerbaijan.png)
*Format: mp3@CBR320kbps
*Size: 89MB

Tracklist:
01. Kopfkino 05:09
02. Azure Dreaming 03:53
03. Time To Tango 04:35
04. Schöne Dummheit 04:17
05. Altitude 04:22
06. Love Performance 03:48
07. Penguins Commit Suicide 04:52
08. Warten Auf Nichts 04:04
09. 1997 03:46
******************************
Total playing time: 38:46



Technical info
(IMG:http://metalarea.org/images/spectrogram/2018_Jun/d55ba7ec377a1012af30f6797e291b1b.png)
Input File: 02. Azure Dreaming.mp3
Channels : 2
Sample Rate : 44100
Precision : 16-bit
Duration : 00:03:53.25 = 10286149 samples = 17493.5 CDDA sectors
File Size : 9.33M
Bit Rate : 320k
Sample Encoding: MPEG audio (layer I, II or III)
Comments :
Title=Azure Dreaming
Artist=Violet Cold
Album=Sommermorgen, Pt. II: Joy
Tracknumber=2/9
Year=2018



Register


Go to the top of the page
  Insert nick Quick quote
+Quote Post

Reply to this topicStart new topic
2 User(s) are reading this topic (2 Guests and 0 Anonymous Users)
0 Members:

 



- Lo-Fi Version Support form
Copyrights and abuse reports form
Time is now: 24th September 2018 - 21:32:07