Welcome Guest ( Log In | Register )

> Ered Amlug - Satan Will Collect (2018), Melodic Black Metal
post Jun 13 2018, 04:10:24
Post #1
BAN
Banned till
Oct 20 2018, 09:33:06



(IMG:http://metalarea.org/images/audiocovers/2018_Jun/acov_tid307072_thumb.jpg)

*Artist: Ered Amlug
*Album: Satan Will Collect
*Year: 2018
*Genre: Melodic Black Metal
*Country: Japan (IMG:http://metalarea.org/forum/style_images/flags/Japan.png)
*Format: mp3@CBR320kbps
*Size: 106MB

Tracklist:
01. Nillin 04:16
02. Gallows 04:44
03. Black Lives Matter 05:10
04. Shadow of Death 05:15
05. Satan Will Collect 05:38
06. Hallel 06:40
07. Balota Og Afar 08:39
08. God Emperor 04:42
******************************
Total playing time: 45:04



Extended info


Technical info
(IMG:http://metalarea.org/images/spectrogram/2018_Jun/19880b09cafbc11625e951a9d80df058.png)
Input File: 02 Gallows.mp3
Channels : 2
Sample Rate : 44100
Precision : 16-bit
Duration : 00:04:44.06 = 12527002 samples = 21304.4 CDDA sectors
File Size : 11.7M
Bit Rate : 329k
Sample Encoding: MPEG audio (layer I, II or III)
Comments :
Title=Gallows
Artist=Ered Amlug
Album=Satan Will Collect
Tracknumber=2/8
Year=2018
Genre=Black Metal
Discnumber=1/1



Register


Go to the top of the page
  Insert nick Quick quote
+Quote Post
 
Start new topic
Replies (1 - 4)
post Jun 13 2018, 08:57:05
Post #2
BAN
Banned till
Oct 20 2018, 09:33:06



Register


Go to the top of the page
  Insert nick Quick quote
+Quote Post
post Jun 15 2018, 10:59:12
Post #3

Маньяк
**********
Group: Металариец
Posts: 1,430
Releases: 0
From: Dnipro
On Forums: 10 years 3 months
Thanks: 387 time(s)
Ukraine


Зачем вообще такое петь? Не понятно.
Go to the top of the page
  Insert nick Quick quote
+Quote Post
post Jun 15 2018, 11:01:24
Post #4
BAN
Banned till
Oct 23 2018, 12:27:08



ЦИТАТА(isvili @ Jun 15 2018, 13:59:12) *
Зачем вообще такое петь? Не понятно.


Ну так они даже название альбома безграмотно написали. Что будет коллекционировать Сатана? (IMG:style_emoticons/default/1488.gif)

Такие ошибки нашим еще относительно простительны...
Go to the top of the page
  Insert nick Quick quote
+Quote Post
post Jun 15 2018, 11:02:58
Post #5

Микроманьяк
***********
Group: Металариец
Posts: 1,839
Releases: 11
From: Київ
On Forums: 12 years 8 months
Thanks: 884 time(s)
Ukraine


ЦИТАТА(vosmidesijatye @ Jun 15 2018, 13:01:24) *
Что будет коллекционировать Сатана? (IMG:style_emoticons/default/1488.gif)

таких, как ты
Go to the top of the page
  Insert nick Quick quote
+Quote Post

Reply to this topicStart new topic
1 User(s) are reading this topic (1 Guests and 0 Anonymous Users)
0 Members:

 



- Lo-Fi Version Support form
Copyrights and abuse reports form
Time is now: 15th October 2018 - 21:19:43