Welcome Guest ( Log In | Register )

 
Reply to this topicStart new topic
> Blood Stain Child - The Legend [best of/compilation] (2018), Melodic Death Metal/Trance (D)
post Jun 13 2018, 04:47:10
Post #1

Правь статус, ####!111
**************
Group: Металариец
Posts: 2,077
Releases: 23
From: Nakhodka
On Forums: 8 years 4 months
Thanks: 1653 time(s)
Russian Federation


(IMG:https://metalarea.org/images/audiocovers/2018_Jun/acov_tid307073_thumb.jpg)

*Artist: Blood Stain Child
*Album: The Legend [best of/compilation]
*Year: 2018
*Genre: Melodic Death Metal/Trance
*Country: Japan (IMG:https://metalarea.org/forum/style_images/flags/Japan.png)
*Format: mp3@CBR320kbps
*Size: 127MB

Tracklist:
1. KAMUI -神威-
2. Silence Of Northern Hell 〜0〜
3. Crimson Symphony 〜rage of blood〜
4. Requiem 〜T.O.A〜
5. Mystic Your Heart 〜angel in the karma〜
6. ∞SYSTEM 〜b.u.r.s.t〜
7. CLONE LIFE 〜anti-human〜
8. Final Sky 〜terra〜
9. Embrace Me 〜you are not alone〜
10. TRUTH 〜psyco society〜
11. Exotic-6-cordinator 〜novum〜
12. FREEDOM 〜ryu in the house〜
13. Another Dimension 〜shiro gane〜
14. Forever Free 〜焔〜
15. ETERNAL proto-type (Bonus)
******************************
Total playing time: 1:00:24

(IMG:https://metalarea.org/images/youtube.png)
(IMG:https://metalarea.org/images/youtube.png)

Extended info
Сборник перезаписанных и переаранжированных песен со всей дискографии. В работе над пластинкой приняли участие многие из бывших членов группы.

Состав:
Saika - вокал (1-10,12-15)
Ryu - гитара
G.S.R. - гитара
Yakky - бас
Yasu - барабаны (1,2,3,4,8,15)
+
Aki - клавишные, электроника (студийный участник)
Ryo - вокал (2,3,4,7,10,11,13,15 )
Sadew - вокал (3,4,5,6,9,11,13,14,15)
Kiki - вокал (12,14 )
Gami - барабаны (5,6,7,14)
Violator - барабаны (9,10,11,12,13)


Technical info
(IMG:https://metalarea.org/images/spectrogram/2018_Jun/5936b90b19c29f9164c411fd57745bb5.png)
Input File: 06. ∞System.mp3
Channels : 2
Sample Rate : 44100
Precision : 16-bit
Duration : 00:02:52.04 = 7586744 samples = 12902.6 CDDA sectors
File Size : 6.88M
Bit Rate : 320k
Sample Encoding: MPEG audio (layer I, II or III)
Comments :
Title=в€ћSYSTEM гЂњb.u.r.s.tгЂњ
Artist=Blood Stain Child
Album=The Legend
Tracknumber=06/15
Year=2018
Genre=Metal
Discnumber=1/1



Register


Go to the top of the page
  Insert nick Quick quote
+Quote Post
post Jun 13 2018, 18:29:20
Post #2

Dark Ambient Shoujo
**********
Group: Металариец
Posts: 1,016
Releases: 1
On Forums: 9 years 9 months
Thanks: 506 time(s)
Russian Federation


Плохие ремиксы, нирикамендую.


Thanks:
(1) MeatWolf,
Go to the top of the page
  Insert nick Quick quote
+Quote Post
post Jun 13 2018, 18:50:10
Post #3

Правь статус, ####!111
**************
Group: Металариец
Posts: 2,657
Releases: 0
From: Одесса
On Forums: 10 years 7 months
Thanks: 1058 time(s)
Ukraine


Melodic Death Metal/Trance (IMG:style_emoticons/default/hmm.gif) (IMG:style_emoticons/default/alkash.gif)
Go to the top of the page
  Insert nick Quick quote
+Quote Post
post Jun 19 2018, 23:21:45
Post #4

Ъ
**************
Group: Металариец
Posts: 9,216
Releases: 9
On Forums: 9 years 9 months
Thanks: 1761 time(s)
Sweden


Оригиналы не помню, но релиз дослушал фоном до середины, вокалы быстро надоедают.
Go to the top of the page
  Insert nick Quick quote
+Quote Post

Reply to this topicStart new topic
1 User(s) are reading this topic (1 Guests and 0 Anonymous Users)
0 Members:

 



- Lo-Fi Version Support form
Copyrights and abuse reports form
Time is now: 16th October 2018 - 02:32:02