Welcome Guest ( Log In | Register )

> Releases Upload / Добавление релизов

Добавить релиз тут / Click here to add release
Рекомендованные обменники / Recommended file shares

 
Reply to this topicStart new topic
> Yuzukingdom - Genesis (2018), Melodic Death/Power Metal
post Jun 13 2018, 04:55:58
Post #1

Правь статус, ####!111
**************
Group: Металариец
Posts: 2,011
Releases: 23
From: Nakhodka
On Forums: 8 years 2 weeks
Thanks: 1563 time(s)
Russian Federation


(IMG:https://metalarea.org/images/audiocovers/2018_Jun/acov_tid307074_thumb.jpg)

*Artist: Yuzukingdom
*Album: Genesis
*Year: 2018
*Genre: Melodic Death/Power Metal
*Country: Japan (IMG:https://metalarea.org/forum/style_images/flags/Japan.png)
*Format: mp3@CBR320kbps
*Size: 96MB

Tracklist:
1. Gate of the Kingdom
2. Trauma
3. Eyes Shut Tightly
4. National Anthem
5. Bleeding
6. Roskill Lavender
7. Plastic Smile
8. Wide Eyed Dreamer
9. Empty Hours
10. Evil Game
11. We All Fight to Live
******************************
Total playing time: 41:11

(IMG:https://metalarea.org/images/youtube.png)
(IMG:https://metalarea.org/images/youtube.png)
(IMG:https://metalarea.org/images/youtube.png)

Extended info
Дебютный альбом. В состав YUZUKINGDOM входит весь современный состав Blood Stain Child, плюс вокалистка Yuzuki (Q'ulle).

Yuzuki - вокал, автор тестов
Ryu - гитара, автор музыки
Saika - вокал
G.S.R. - гитара
Yakky - бас
Yasu - барабаны


Technical info
(IMG:https://metalarea.org/images/spectrogram/2018_Jun/9091e0e5b1037bcd11b93420c3ee4cc1.png)
Input File: 01. Gate of the Kingdom.mp3
Channels : 2
Sample Rate : 44100
Precision : 16-bit
Duration : 00:01:48.58 = 4788290 samples = 8143.35 CDDA sectors
File Size : 4.39M
Bit Rate : 323k
Sample Encoding: MPEG audio (layer I, II or III)
Comments :
Title=Gate of the Kingdom
Artist=Yuzukingdom
Album=Genesis
Tracknumber=1/11
Year=2018
Genre=Metal
Discnumber=1/1



Register


Go to the top of the page
  Insert nick Quick quote
+Quote Post
post Jun 13 2018, 21:04:03
Post #2

MDM-Thrash Metal
**************
Group: Металариец
Posts: 6,808
Releases: 412
From: Одесса
On Forums: 10 years 10 months
Thanks: 12974 time(s)
Ukraine


Register


Thanks:
(1) csgmnk,
Go to the top of the page
  Insert nick Quick quote
+Quote Post
post Jun 14 2018, 05:44:49
Post #3

hearer & reader
**************
Group: Металариец
Posts: 6,406
Releases: 81
From: Moscow
On Forums: 10 years 9 months
Thanks: 6418 time(s)
Russian Federation


Да, вот эта "плюс вокалистка" для меня несъедобна.. да и Blood Stain Child давно уже отстойная банда.
Go to the top of the page
  Insert nick Quick quote
+Quote Post
post Jun 18 2018, 19:54:10
Post #4

Ъ
**************
Group: Металариец
Posts: 9,066
Releases: 9
On Forums: 9 years 5 months
Thanks: 1718 time(s)
Sweden


Господе что же за дерьмо...Надо быть реально больным, чтобы это нравилось.


Thanks:
Go to the top of the page
  Insert nick Quick quote
+Quote Post
post Jun 19 2018, 18:12:31
Post #5

Перевозчик
**************
Group: Металариец
Posts: 2,726
Releases: 0
On Forums: 9 years 11 months
Thanks: 549 time(s)
Russian Federation


Обычный мелодэт. Выходит, он только больным нравится?
Go to the top of the page
  Insert nick Quick quote
+Quote Post
post Jun 20 2018, 04:46:08
Post #6

Правь статус, ####!111
**************
Group: Металариец
Posts: 2,011
Releases: 23
From: Nakhodka
On Forums: 8 years 2 weeks
Thanks: 1563 time(s)
Russian Federation


ЦИТАТА(zauber1 @ 20th June 2018 - 03:12:31) *
Обычный мелодэт.

Не совсем обычный, присутствует изрядная доля хардкор/металкоровых рваных рифов. Местами слышатся отголоски павера (National Anthem) и джей-попа (Bleeding, Empty Hours). Сам мелодет идет как основа, его в альбоме по ощущениям около 70%.
В целом, крепкий экспериментальный релиз, очень понравились жирные гитары и то, как органично в песнях сочетаются куски с полной экстремальщиной, так и вполне спокойные места, да еще и хитово всё это дело звучит, ибо материал довольно разнообраный и запоминающийся.

Из аналогий на ум приходят Maximum The Hormone (те же составляющие, только в других пропорциях), да Blood Stain Child образца "Last Stardust" (только без обильной электронщины и с поправкой на других вокалистов).

Я даже не знаю кем нужно быть, чтобы такой любопытный альбом дерьмом поливать. Либо закостенелым противником любых экспериментов и смешивания жанров, либо не переваривать чистый японский вокал (такие персонажи обычно клеймят тегом "фуаниме"). Остальных альбом может порадовать.


Thanks:
(1) MeatWolf,
Go to the top of the page
  Insert nick Quick quote
+Quote Post
post Jun 20 2018, 13:14:17
Post #7

Ъ
**************
Group: Металариец
Posts: 9,066
Releases: 9
On Forums: 9 years 5 months
Thanks: 1718 time(s)
Sweden


Очевидно вы не прикидываетесь...Я думал любому кто это включит станет противно от вокала.
PS Анимэ мне кстати то же не нравится своей рисовкой, но за то чтобы его вообще не существовало я никогда не агитировал. Смотрите на здоровье.


Thanks:
Go to the top of the page
  Insert nick Quick quote
+Quote Post

Reply to this topicStart new topic
2 User(s) are reading this topic (2 Guests and 0 Anonymous Users)
0 Members:

 



- Lo-Fi Version Support form
Copyrights and abuse reports form
Time is now: 23rd June 2018 - 18:29:13