Welcome Guest ( Log In | Register )

> Releases Upload / Добавление релизов

Добавить релиз тут / Click here to add release
Рекомендованные обменники / Recommended file shares

> Yuzukingdom - Genesis (2018), Melodic Death/Power Metal
post Jun 13 2018, 04:55:58
Post #1

Правь статус, ####!111
**************
Group: Металариец
Posts: 2,009
Releases: 23
From: Nakhodka
On Forums: 8 years 2 weeks
Thanks: 1557 time(s)
Russian Federation


(IMG:https://metalarea.org/images/audiocovers/2018_Jun/acov_tid307074_thumb.jpg)

*Artist: Yuzukingdom
*Album: Genesis
*Year: 2018
*Genre: Melodic Death/Power Metal
*Country: Japan (IMG:https://metalarea.org/forum/style_images/flags/Japan.png)
*Format: mp3@CBR320kbps
*Size: 96MB

Tracklist:
1. Gate of the Kingdom
2. Trauma
3. Eyes Shut Tightly
4. National Anthem
5. Bleeding
6. Roskill Lavender
7. Plastic Smile
8. Wide Eyed Dreamer
9. Empty Hours
10. Evil Game
11. We All Fight to Live
******************************
Total playing time: 41:11

(IMG:https://metalarea.org/images/youtube.png)
(IMG:https://metalarea.org/images/youtube.png)
(IMG:https://metalarea.org/images/youtube.png)

Extended info
Дебютный альбом. В состав YUZUKINGDOM входит весь современный состав Blood Stain Child, плюс вокалистка Yuzuki (Q'ulle).

Yuzuki - вокал, автор тестов
Ryu - гитара, автор музыки
Saika - вокал
G.S.R. - гитара
Yakky - бас
Yasu - барабаны


Technical info
(IMG:https://metalarea.org/images/spectrogram/2018_Jun/9091e0e5b1037bcd11b93420c3ee4cc1.png)
Input File: 01. Gate of the Kingdom.mp3
Channels : 2
Sample Rate : 44100
Precision : 16-bit
Duration : 00:01:48.58 = 4788290 samples = 8143.35 CDDA sectors
File Size : 4.39M
Bit Rate : 323k
Sample Encoding: MPEG audio (layer I, II or III)
Comments :
Title=Gate of the Kingdom
Artist=Yuzukingdom
Album=Genesis
Tracknumber=1/11
Year=2018
Genre=Metal
Discnumber=1/1



Register


Go to the top of the page
  Insert nick Quick quote
+Quote Post
 
Start new topic
Replies (1 - 2)
post Jun 13 2018, 21:04:03
Post #2

MDM-Thrash Metal
**************
Group: Металариец
Posts: 6,796
Releases: 412
From: Одесса
On Forums: 10 years 10 months
Thanks: 12949 time(s)
Ukraine


Register


Thanks:
(1) csgmnk,
Go to the top of the page
  Insert nick Quick quote
+Quote Post
post Jun 14 2018, 05:44:49
Post #3

hearer & reader
**************
Group: Металариец
Posts: 6,381
Releases: 81
From: Moscow
On Forums: 10 years 9 months
Thanks: 6412 time(s)
Russian Federation


Да, вот эта "плюс вокалистка" для меня несъедобна.. да и Blood Stain Child давно уже отстойная банда.
Go to the top of the page
  Insert nick Quick quote
+Quote Post

Reply to this topicStart new topic
2 User(s) are reading this topic (2 Guests and 0 Anonymous Users)
0 Members:

 



- Lo-Fi Version Support form
Copyrights and abuse reports form
Time is now: 18th June 2018 - 08:11:35