Welcome Guest ( Log In | Register )

> Releases Upload / Добавление релизов

Добавить релиз тут / Click here to add release
Рекомендованные обменники / Recommended file shares

> End Of Reign - Into The Ocean (2018), Heavy/Thrash Metal
post Jun 13 2018, 05:52:51
Post #1

Правь статус, ####!111
**************
Group: Металариец
Posts: 13,381
Releases: 9428
From: Г.Харьков
On Forums: 6 years 1 month
Thanks: 153941 time(s)
Unknown


(IMG:http://metalarea.org/images/audiocovers/2018_Jun/acov_tid307075_thumb.jpg)

*Artist: End Of Reign
*Album: Into The Ocean
*Year: 2018
*Genre: Heavy/Thrash Metal
*Country: Germany (IMG:http://metalarea.org/forum/style_images/flags/Germany.png)
*Format: mp3@CBR320kbps
*Size: 89MB

Tracklist:
1. Abandoned Ship
2. Searching For You
3. Escape The Strife
4. Forsaken
5. Into The Ocean
6. Thrown For Deliverance
7. Blinded
8. Worst Nightmare
9. In My Arms
10. Empty Memories
11. Triumph Of Reign
******************************
Total playing time: 34:48



Technical info
(IMG:http://metalarea.org/images/spectrogram/2018_Jun/29fbf0b708d3d242d26c6dc87329ea86.png)
Input File: 02 Searching for You.mp3
Channels : 2
Sample Rate : 44100
Precision : 16-bit
Duration : 00:03:49.09 = 10102957 samples = 17181.9 CDDA sectors
File Size : 9.86M
Bit Rate : 344k
Sample Encoding: MPEG audio (layer I, II or III)
Comments :
Title=Searching for You
Artist=End of Reign
Album=Into the Ocean
Tracknumber=2/11
Year=2018
Genre=Thrash Metal
Discnumber=1/1



Register


Go to the top of the page
  Insert nick Quick quote
+Quote Post
 
Start new topic
Replies (1 - 2)
post Jun 13 2018, 08:58:31
Post #2

Правь статус, ####!111
**************
Group: Металариец
Posts: 13,381
Releases: 9428
From: Г.Харьков
On Forums: 6 years 1 month
Thanks: 153941 time(s)
Unknown


Register


Thanks:
Go to the top of the page
  Insert nick Quick quote
+Quote Post
post Jun 14 2018, 05:48:16
Post #3

hearer & reader
**************
Group: Металариец
Posts: 6,402
Releases: 81
From: Moscow
On Forums: 10 years 9 months
Thanks: 6418 time(s)
Russian Federation


Уныло до безобразия.. Вокал(ы) чистый и харш - паршивые.
Go to the top of the page
  Insert nick Quick quote
+Quote Post

Reply to this topicStart new topic
2 User(s) are reading this topic (2 Guests and 0 Anonymous Users)
0 Members:

 



- Lo-Fi Version Support form
Copyrights and abuse reports form
Time is now: 23rd June 2018 - 08:57:45