Welcome Guest ( Log In | Register )

 
Reply to this topicStart new topic
> Deflorated Eye Sockets - Taking A Piss Shower [ep] (2018), Goregrind/Noisegrind
post Jun 13 2018, 11:16:26
Post #1

Serial Uploader
Group Icon
Group: V.I.P
Posts: 33,137
Releases: 31421
From: Lithuania
On Forums: 10 years 4 months
Thanks: 359295 time(s)
Lithuania


(IMG:https://metalarea.org/images/audiocovers/2018_Jun/acov_tid307078_thumb.jpg)

*Artist: Deflorated Eye Sockets
*Album: Taking A Piss Shower [ep]
*Year: 2018
*Genre: Goregrind/Noisegrind
*Country: Russian Federation (IMG:https://metalarea.org/forum/style_images/flags/Russian%20Federation.png)
*Format: mp3@CBR320kbps
*Size: 15MB

Tracklist:
01. Untitled 01 00:25
02. Untitled 02 00:59
03. Untitled 03 00:54
04. Untitled 04 00:43
05. Untitled 05 00:52
06. Untitled 06 00:41
07. Untitled 07 00:38
08. Untitled 08 00:47
******************************
Total playing time: 5:59



Technical info
(IMG:https://metalarea.org/images/spectrogram/2018_Jun/fe5424862492cc9ca8ea36dd121d217a.png)
Input File: 02. Untitled 02.mp3
Channels : 2
Sample Rate : 44100
Precision : 16-bit
Duration : 00:00:59.02 = 2602606 samples = 4426.2 CDDA sectors
File Size : 2.44M
Bit Rate : 331k
Sample Encoding: MPEG audio (layer I, II or III)
Comments :
Title=Untitled 02
Artist=Deflorated Eye Sockets
Album=Taking a Piss Shower
Tracknumber=2
Year=2018



Register


Thanks:
Go to the top of the page
  Insert nick Quick quote
+Quote Post

Reply to this topicStart new topic
1 User(s) are reading this topic (1 Guests and 0 Anonymous Users)
0 Members:

 



- Lo-Fi Version Support form
Copyrights and abuse reports form
Time is now: 21st October 2018 - 13:05:30