Welcome Guest ( Log In | Register )

> Releases Upload / Добавление релизов

Добавить релиз тут / Click here to add release
Рекомендованные обменники / Recommended file shares

> Cruel Master - Demo V [demo] (2018), Black Metal/Punk (D5)
post Jun 13 2018, 11:19:55
Post #1

Правь статус, ####!616
**************
Group: Металариец
Posts: 4,397
Releases: 3000
From: 55°35’N 38°08’E
On Forums: 9 years 11 months
Thanks: 55793 time(s)
Unknown


(IMG:http://metalarea.org/images/audiocovers/2018_Jun/acov_tid307079_thumb.jpg)

*Artist: Cruel Master
*Album: Demo V [demo]
*Year: 2018
*Genre: Black Metal/Punk
*Country: United States (IMG:http://metalarea.org/forum/style_images/flags/United%20States.png)
*Format: mp3@CBR320kbps
*Size: 46MB

Tracklist:
1.Lecherous 02:58
2.Naked & Bleeding 03:56
3.Tortuous Death 03:19
4.Your Sacrifice 02:19
5.Depopulate 03:20
6.Become Nothing 03:55
******************************
Total playing time: 19:47



Technical info
(IMG:http://metalarea.org/images/spectrogram/2018_Jun/7524b33894352c60a7fd1b863f3d09e0.png)
Input File: 01 Lecherous.mp3
Channels : 2
Sample Rate : 44100
Precision : 16-bit
Duration : 00:02:58.67 = 7879391 samples = 13400.3 CDDA sectors
File Size : 7.18M
Bit Rate : 322k
Sample Encoding: MPEG audio (layer I, II or III)
Comments :
Title=Lecherous
Artist=Cruel Master
Album=Demo V
Tracknumber=1
Year=2018
Genre=Black Metal



Register


Go to the top of the page
  Insert nick Quick quote
+Quote Post
 
Start new topic
Replies (1 - 1)
post Jun 15 2018, 08:58:48
Post #2

Satan bless you!
**************
Group: Металариец
Posts: 3,140
Releases: 63
From: Москва
On Forums: 9 years 11 months
Thanks: 2707 time(s)
Russian Federation


Одна из немногих штатовских команд действительно клёво играющих в ключе Ildjarn'а
Go to the top of the page
  Insert nick Quick quote
+Quote Post

Reply to this topicStart new topic
2 User(s) are reading this topic (2 Guests and 0 Anonymous Users)
0 Members:

 



- Lo-Fi Version Support form
Copyrights and abuse reports form
Time is now: 18th June 2018 - 21:57:03